<?xml version="1.0" standalone="no"?>
<!DOCTYPE svg PUBLIC "-//W3C//DTD SVG 1.1//EN" "http://www.w3.org/Graphics/SVG/1.1/DTD/svg11.dtd" >
<svg xmlns="http://www.w3.org/2000/svg">
<metadata>Generated by IcoMoon</metadata>
<defs>
<font id="cerbeyra" horiz-adv-x="1024">
<font-face units-per-em="1024" ascent="960" descent="-64" />
<missing-glyph horiz-adv-x="1024" />
<glyph unicode="&#x20;" horiz-adv-x="512" d="" />
<glyph unicode="&#xe900;" glyph-name="alert" d="M554.631 192.214c0-23.545-19.087-42.631-42.631-42.631s-42.631 19.087-42.631 42.631c0 23.545 19.087 42.631 42.631 42.631s42.631-19.087 42.631-42.631zM512 746.42c-23.544-0.001-42.631-19.087-42.631-42.631v0-341.050c0-23.545 19.087-42.631 42.631-42.631s42.631 19.087 42.631 42.631v0 341.050c0 0 0 0.001 0 0.001 0 23.544-19.086 42.63-42.63 42.63 0 0-0.001 0-0.001 0v0z" />
<glyph unicode="&#xe901;" glyph-name="alert-circle" d="M512 959.574c-282.534 0-511.574-229.039-511.574-511.574s229.039-511.574 511.574-511.574c282.534 0 511.574 229.039 511.574 511.574v0c0 282.534-229.039 511.574-511.574 511.574v0zM512 21.689c-235.445 0-426.311 190.866-426.311 426.311s190.866 426.311 426.311 426.311c235.445 0 426.311-190.866 426.311-426.311v0c0-235.445-190.866-426.311-426.311-426.311v0zM512 320.106c-23.544 0-42.631 19.087-42.631 42.631v0 341.049c0 23.545 19.087 42.631 42.631 42.631s42.631-19.087 42.631-42.631v0-341.049c0-23.544-19.087-42.631-42.631-42.631v0zM554.631 192.213c0-23.545-19.087-42.631-42.631-42.631s-42.631 19.087-42.631 42.631c0 23.545 19.087 42.631 42.631 42.631s42.631-19.087 42.631-42.631z" />
<glyph unicode="&#xe902;" glyph-name="arc" d="M874.022 810.084c-92.684 92.697-220.732 150.033-362.172 150.033-282.853 0-512.151-229.298-512.151-512.151s229.298-512.151 512.151-512.151c282.849 0 512.144 229.291 512.151 512.138v0c-0.062 141.406-57.36 269.418-149.982 362.134l0.004-0.004zM292.11 282.099l-114.422-114.348c-63.227 75.333-101.635 173.349-101.635 280.336 0 106.933 38.369 204.904 102.090 280.897l-0.554-0.679 114.521-114.546c-34.988-45.45-56.075-103.177-56.075-165.83s21.087-120.38 56.55-166.473l-0.475 0.643zM677.5 667.489c-45.626 34.455-103.295 55.186-165.806 55.186s-120.179-20.731-166.506-55.692l0.701 0.507-114.397 114.471c75.321 63.125 173.278 101.465 280.19 101.465s204.869-38.34 280.872-102.021l-0.682 0.556zM511.693 248.691c-0.003 0-0.007 0-0.011 0-110.043 0-199.251 89.208-199.251 199.251s89.208 199.251 199.251 199.251c110.039 0 199.244-89.201 199.251-199.238v-0.001c-0.12-109.993-89.248-199.129-199.227-199.263h-0.013zM345.838 228.369c45.704-34.3 103.383-54.927 165.88-54.927s120.175 20.627 166.599 55.444l-0.72-0.517 114.374-114.398c-75.333-63.236-173.354-101.65-280.346-101.65-106.952 0-204.939 38.385-280.935 102.13l0.678-0.553zM731.45 613.759l114.225 114.447c63.177-75.355 101.551-173.368 101.551-280.343 0-106.881-38.306-204.815-101.937-280.822l0.559 0.686-114.373 114.348c34.981 45.451 56.064 103.177 56.064 165.827 0 62.663-21.091 120.401-56.562 166.5l0.475-0.643z" />
<glyph unicode="&#xe903;" glyph-name="arrow-left" d="M339.866 733.403l-195.549-195.506c-23.064-23.176-37.322-55.133-37.322-90.421s14.258-67.245 37.327-90.426l195.544-195.501c7.659-7.406 18.106-11.97 29.62-11.97 23.545 0 42.631 19.087 42.631 42.631 0 11.513-4.564 21.96-11.981 29.631l0.011-0.012-182.973 183.015h657.203c23.545 0 42.631 19.087 42.631 42.631s-19.087 42.631-42.631 42.631h-657.244l183.013 183.015c8.069 7.768 13.081 18.663 13.081 30.728 0 23.545-19.087 42.631-42.631 42.631-11.543 0-22.015-4.588-29.692-12.040l0.010 0.010z" />
<glyph unicode="&#xe904;" glyph-name="arrow-right" d="M684.134 162.597l195.549 195.506c23.064 23.176 37.322 55.133 37.322 90.421s-14.258 67.245-37.328 90.426l-195.544 195.501c-7.658 7.402-18.102 11.963-29.612 11.963-23.545 0-42.631-19.087-42.631-42.631 0-11.51 4.561-21.954 11.974-29.624l182.961-183.003h-657.203c-23.545 0-42.631-19.087-42.631-42.631s19.087-42.631 42.631-42.631h657.244l-183.015-183.015c-8.069-7.768-13.081-18.663-13.081-30.728 0-23.545 19.087-42.631 42.631-42.631 11.543 0 22.015 4.588 29.692 12.040l-0.010-0.010z" />
<glyph unicode="&#xe905;" glyph-name="bell" d="M945.924 155.459l-0.004-0.003-90.465 91.238v240.505c0 170.747-88.772 306.016-228.766 353.681v5.653c-0.762 62.819-51.864 113.45-114.792 113.45s-114.030-50.631-114.792-113.378l-0.001-0.072v-5.703c-139.941-47.559-228.71-182.989-228.71-353.628v-240.509l-90.366-91.234c-6.956-7.084-11.25-16.802-11.25-27.523 0-0.008 0-0.016 0-0.024v0.001-51.347c0-0.055 0-0.12 0-0.185 0-21.316 17.227-38.609 38.518-38.714h305.164c0.13-56.108 45.644-101.542 101.77-101.542s101.641 45.434 101.77 101.53v0.012h304.694c21.303 0.106 38.532 17.4 38.532 38.718 0 0.064 0 0.128 0 0.192v-0.010 51.349c0 0.005 0 0.012 0 0.018 0 10.732-4.316 20.455-11.307 27.53l0.004-0.004zM147.433 115.468l86.715 87.606c6.987 7.068 11.303 16.789 11.303 27.518 0 0.007 0 0.014 0 0.020v-0.001 256.59c0 147.251 76.339 257.050 199.122 286.513 17.114 4.278 29.59 19.519 29.59 37.674 0 0.067 0 0.134-0.001 0.201v-0.010 34.956c0.575 20.399 17.248 36.716 37.733 36.716s37.158-16.317 37.731-36.663l0.001-0.053v-34.956c0-0.042 0-0.091 0-0.141 0-18.184 12.501-33.448 29.378-37.668l0.267-0.057c122.829-29.356 199.122-139.162 199.122-286.515v-256.59c0-0.008 0-0.018 0-0.028 0-10.726 4.315-20.444 11.304-27.513l-0.004 0.004 86.822-87.606z" />
<glyph unicode="&#xe906;" glyph-name="bookmark" d="M859.127-63.846c-33.18 0.094-63.164 13.702-84.752 35.607l-0.014 0.014-262.361 260.824-262.362-260.996c-21.675-21.982-51.783-35.599-85.072-35.599-16.969 0-33.112 3.538-47.731 9.918l0.77-0.299c-44.265 18.152-74.874 60.912-74.874 110.821 0 0.394 0.002 0.787 0.006 1.18v-0.060 689.135c0 0.001 0 0.002 0 0.003 0 117.802 95.497 213.299 213.299 213.299 0.001 0 0.002 0 0.003 0h511.924c117.802 0 213.299-95.497 213.299-213.299 0-0.001 0-0.002 0-0.003v0-689.135c0.004-0.353 0.006-0.771 0.006-1.188 0-49.845-30.53-92.559-73.91-110.462l-0.794-0.29c-13.935-5.988-30.155-9.469-47.187-9.469-0.087 0-0.175 0-0.262 0h0.014zM256.038 874.679c-70.682 0-127.981-57.299-127.981-127.981v0-689.135c0-0.023 0-0.051 0-0.078 0-19.861 16.101-35.962 35.962-35.962 9.887 0 18.842 3.99 25.342 10.447l-0.002-0.002 292.778 290.986c7.711 7.667 18.34 12.406 30.075 12.406s22.365-4.739 30.077-12.408l-0.002 0.002 292.436-290.902c6.499-6.455 15.454-10.444 25.341-10.444 19.862 0 35.963 16.101 35.963 35.963 0 0.027 0 0.055 0 0.082v-0.004 689.051c0 70.682-57.299 127.981-127.981 127.981v0z" />
<glyph unicode="&#xe907;" glyph-name="bug" d="M969.692 390.068l0.25-0.125c6.229-3.433 13.653-5.452 21.548-5.452 25.023 0 45.307 20.285 45.307 45.307 0 10.779-3.764 20.678-10.049 28.456l0.067-0.086 2.35 2.35-107.649 61.325c-6.453 3.728-14.194 5.928-22.449 5.928-5.356 0-10.496-0.926-15.269-2.627l0.318 0.099-62.9-22.049c-25.034 77.899-72.12 142.861-133.861 189.428l-0.965 0.697 8.625 32.35c44.298 10.093 76.859 49.148 76.859 95.807 0 54.203-43.94 98.143-98.143 98.143s-98.143-43.94-98.143-98.143c0-0.064 0-0.129 0-0.193v0.010c0-0.023 0-0.050 0-0.078 0-28.562 12.323-54.246 31.943-72.024l0.082-0.073-3.5-13.1c-26.939 9.467-57.999 14.937-90.337 14.937-32.394 0-63.506-5.488-92.457-15.586l1.969 0.598-3.5 13.2c19.673 17.867 31.975 43.547 31.975 72.101 0 0.017 0 0.035 0 0.052v-0.003c0 0.112 0.001 0.244 0.001 0.376 0 54.297-44.016 98.313-98.313 98.313s-98.313-44.016-98.313-98.313c0-46.825 32.736-86.004 76.57-95.901l0.657-0.125 8.653-32.45c-62.826-47.411-109.971-112.587-134.202-188.031l-0.747-2.694-64.928 22.751c-4.469 1.645-9.63 2.597-15.013 2.597-8.234 0-15.949-2.227-22.574-6.111l0.211 0.114-92.849-52.902c-14.208-7.835-23.672-22.716-23.672-39.809 0-20.402 13.484-37.654 32.027-43.331l0.321-0.085c3.836-1.154 8.243-1.819 12.806-1.819 8.507 0 16.474 2.31 23.309 6.336l-0.215-0.117 75.15 42.8 56.225-19.725c-1.693-13.451-2.786-29.281-3.022-45.317l-0.004-0.333h-64.15c-10.476-0.016-20.119-3.569-27.803-9.527l0.104 0.077-80.998-62.6c-11.226-8.34-18.421-21.56-18.421-36.459 0-25.014 20.277-45.291 45.291-45.291 10.76 0 20.644 3.752 28.414 10.020l-0.087-0.068 68.925 53.325h57.1c3.619-18.283 7.586-33.469 12.326-48.31l-0.851 3.085-60.2-14.875c-11.19-2.83-20.491-9.543-26.598-18.59l-0.102-0.16-63.6-94.874c-5.374-7.354-8.598-16.576-8.598-26.551 0-25.015 20.278-45.293 45.293-45.293 2.526 0 5.004 0.207 7.418 0.604l-0.263-0.036c13.080 2.325 24.069 9.831 30.967 20.276l0.108 0.174 54.125 80.725 58.15 14.375c52.899-99.956 154.838-167.692 272.907-171.189l0.468-0.011c118.358 3.496 220.167 71.038 272.29 169.031l0.835 1.721 56.125-13.875 54.025-80.675c8.258-12.266 22.092-20.228 37.786-20.228 9.293 0 17.935 2.792 25.131 7.583l-0.167-0.104c12.309 8.211 20.307 22.041 20.307 37.738 0 9.467-2.909 18.254-7.882 25.517l0.1-0.155-63.824 95.221c-6.216 9.217-15.526 15.939-26.414 18.708l-0.313 0.067-58.074 14.351c3.953 11.929 7.98 27.324 11.17 43.023l0.48 2.826h54.95l69.349-53.627c7.309-5.276 16.448-8.438 26.325-8.438 25.009 0 45.283 20.274 45.283 45.283 0 13.943-6.302 26.414-16.212 34.721l-0.070 0.057-81.7 63.078c-7.569 5.863-17.193 9.405-27.643 9.425h-61.932c-0.236 16.615-1.355 32.694-3.316 48.513l0.216-2.138 53.975 18.925zM468.492 465.393v-392.8c-111.65 26.6-194.099 148.625-194.099 291.1 0 0.121 0 0.264 0 0.408 0 36.113 5.381 70.97 15.385 103.812l-0.66-2.52zM695.592 555.918h-363.674c38.995 61.107 105.392 101.737 181.45 104.513l0.4 0.012c76.45-2.789 142.838-43.42 181.284-103.622l0.539-0.903zM559.067 72.59v392.803h179.35c9.344-30.362 14.725-65.263 14.725-101.422 0-0.098 0-0.196 0-0.294v0.016c0-142.45-82.45-264.45-194.075-291.1z" />
<glyph unicode="&#xe908;" glyph-name="bullseye" d="M512 960c-282.77 0-512-229.23-512-512s229.23-512 512-512c282.77 0 512 229.23 512 512v0c0 282.77-229.23 512-512 512v0zM512 23.040c-234.699 0-424.96 190.261-424.96 424.96s190.261 424.96 424.96 424.96c234.699 0 424.96-190.261 424.96-424.96v0c-0.273-234.589-190.371-424.687-424.934-424.96h-0.026zM512 751.315c-0.001 0-0.002 0-0.003 0-167.517 0-303.315-135.799-303.315-303.315s135.799-303.315 303.315-303.315c167.517 0 303.315 135.799 303.315 303.315v0c-0.001 167.515-135.797 303.313-303.312 303.315v0zM512 231.725c-119.445 0-216.275 96.83-216.275 216.275s96.83 216.275 216.275 216.275c119.445 0 216.275-96.83 216.275-216.275v0c-0.139-119.389-96.885-216.136-216.261-216.275h-0.014zM599.697 448c0-48.434-39.263-87.697-87.697-87.697s-87.697 39.263-87.697 87.697c0 48.434 39.263 87.697 87.697 87.697s87.697-39.263 87.697-87.697z" />
<glyph unicode="&#xe909;" glyph-name="calendar" d="M810.666 874.666h-42.666v42.667c-0.084 23.501-19.154 42.519-42.667 42.519s-42.583-19.018-42.667-42.511v-42.675h-341.333v42.667c-0.084 23.501-19.154 42.519-42.667 42.519s-42.583-19.018-42.667-42.511v-42.675h-42.666c-117.762-0.145-213.188-95.571-213.333-213.319v-512.014c0.145-117.762 95.571-213.188 213.32-213.333h597.347c117.762 0.145 213.188 95.571 213.333 213.32v512.014c-0.146 117.762-95.571 213.188-213.32 213.333h-0.014zM85.334 661.334c0 70.692 57.308 128 128 128v0h597.333c70.692 0 128-57.308 128-128v0-42.667h-853.333zM810.666 21.334h-597.333c-70.692 0-128 57.308-128 128v0 384h853.333v-384c0-70.692-57.308-128-128-128v0zM348.186 373.931c0 23.564-19.102 42.666-42.666 42.666v0h-85.334c-23.501-0.084-42.519-19.154-42.519-42.667s19.018-42.583 42.511-42.667h85.342c23.564 0 42.666 19.103 42.666 42.667v0zM597.334 373.931c0 23.564-19.102 42.666-42.666 42.666 0 0 0 0-0.001 0h-85.333c-0.044 0-0.096 0-0.148 0-23.564 0-42.667-19.103-42.667-42.667s19.103-42.667 42.667-42.667c0.052 0 0.104 0 0.156 0h85.325c23.564 0 42.667 19.103 42.667 42.667v0zM846.48 373.931c0 0 0 0 0 0.001 0 23.564-19.102 42.666-42.666 42.666 0 0 0 0-0.001 0h-85.333c-23.501-0.084-42.519-19.154-42.519-42.667s19.018-42.583 42.511-42.667h85.342c23.564 0 42.666 19.102 42.666 42.666 0 0 0 0 0 0.001v0zM348.186 180.736c0 23.564-19.103 42.666-42.666 42.666h-85.334c-23.501-0.084-42.519-19.154-42.519-42.667s19.018-42.583 42.511-42.667h85.342c23.564 0 42.666 19.103 42.666 42.667v0zM597.334 180.736c0 23.564-19.103 42.666-42.667 42.666h-85.333c-0.044 0-0.096 0-0.148 0-23.564 0-42.667-19.103-42.667-42.667s19.103-42.667 42.667-42.667c0.052 0 0.104 0 0.156 0h85.325c23.564 0 42.667 19.103 42.667 42.667v0zM846.48 180.736c0 23.564-19.102 42.666-42.666 42.666h-85.334c-23.501-0.084-42.519-19.154-42.519-42.667s19.018-42.583 42.511-42.667h85.342c23.564 0 42.666 19.102 42.666 42.666 0 0 0 0 0 0.001v0z" />
<glyph unicode="&#xe90a;" glyph-name="calendar-play" d="M810.666 874.666h-42.666v42.667c-0.084 23.501-19.154 42.519-42.667 42.519s-42.583-19.018-42.667-42.511v-42.675h-341.333v42.667c-0.084 23.501-19.154 42.519-42.667 42.519s-42.583-19.018-42.667-42.511v-42.675h-42.666c-117.762-0.145-213.188-95.571-213.333-213.319v-512.014c0.145-117.762 95.571-213.188 213.32-213.333h597.347c117.762 0.145 213.188 95.571 213.333 213.32v512.014c-0.146 117.762-95.571 213.188-213.32 213.333h-0.014zM85.334 661.334c0 70.692 57.308 128 128 128v0h597.333c70.692 0 128-57.308 128-128v0-42.667h-853.333zM810.666 21.334h-597.333c-70.692 0-128 57.308-128 128v0 384h853.333v-384c0-70.692-57.308-128-128-128v0zM452.71 125.994v302.806c0.003 14.967 12.137 27.099 27.104 27.099 7.483 0 14.258-3.033 19.163-7.936l151.404-151.404c4.903-4.905 7.936-11.679 7.936-19.163s-3.033-14.258-7.936-19.163l-151.403-151.402c-4.905-4.903-11.68-7.935-19.163-7.935-14.967 0-27.101 12.131-27.105 27.098v0z" />
<glyph unicode="&#xe90b;" glyph-name="camera" d="M810.666 789.334h-21.674l-93.184 120.832c-23.728 30.328-60.276 49.681-101.35 49.834h-164.89c-41.1-0.154-77.648-19.507-101.163-49.551l-0.213-0.283-93.184-120.832h-21.674c-117.762-0.146-213.188-95.572-213.333-213.32v-426.68c0.145-117.762 95.571-213.188 213.32-213.333h597.347c117.762 0.145 213.188 95.571 213.333 213.32v426.68c-0.146 117.762-95.571 213.188-213.319 213.333h-0.014zM395.776 858.026c7.898 10.128 20.085 16.593 33.784 16.64h164.872c13.704-0.061 25.886-6.521 33.721-16.545l0.071-0.095 52.992-68.693h-338.432zM938.666 149.334c0-70.692-57.308-128-128-128v0h-597.333c-70.692 0-128 57.308-128 128v0 426.666c0 70.692 57.308 128 128 128v0h597.333c70.692 0 128-57.308 128-128v0zM512 618.666c-141.385 0-256-114.615-256-256s114.615-256 256-256c141.385 0 256 114.615 256 256v0c0 141.385-114.615 256-256 256v0zM512 192c0 0 0 0-0.001 0-94.257 0-170.667 76.41-170.667 170.667s76.41 170.667 170.667 170.667c94.257 0 170.667-76.41 170.667-170.667 0 0 0 0 0 0v0c0-94.257-76.41-170.666-170.666-170.666v0z" />
<glyph unicode="&#xe90c;" glyph-name="cart" d="M981.651 786.048c-23.588 28.167-58.77 45.952-98.106 45.952-0.055 0-0.11 0-0.164 0h-689.826l-1.792 14.976c-7.75 63.933-61.672 112.993-127.058 113.024h-9.475c-23.501-0.084-42.519-19.154-42.519-42.667s19.018-42.583 42.511-42.667h9.48c21.803-0.003 39.784-16.358 42.348-37.47l0.020-0.205 58.71-499.2c12.88-106.629 102.823-188.458 211.878-188.458 0.002 0 0.003 0 0.005 0h445.568c23.564 0 42.666 19.102 42.666 42.666s-19.102 42.666-42.666 42.666h-445.568c-55.254 0.16-102.258 35.306-120.038 84.442l-0.282 0.891h508.587c0.004 0 0.008 0 0.013 0 104.444 0 191.357 75.055 209.747 174.172l0.203 1.316 33.493 185.77c1.305 6.855 2.051 14.74 2.051 22.799 0 31.3-11.257 59.971-29.943 82.185l0.159-0.194zM925.63 696.406l-33.536-185.771c-11.152-60.264-63.302-105.301-125.971-105.301-0.068 0-0.137 0-0.205 0h-522.143l-40.152 341.333h679.768c0.076 0 0.166 0.001 0.256 0.001 23.563 0 42.665-19.102 42.665-42.665 0-2.685-0.248-5.312-0.722-7.86l0.041 0.264zM396.563 21.334c0-47.128-38.205-85.334-85.334-85.334s-85.334 38.205-85.334 85.334c0 47.128 38.205 85.334 85.334 85.334s85.334-38.205 85.334-85.334zM823.23 21.334c0-47.128-38.205-85.334-85.334-85.334s-85.334 38.205-85.334 85.334c0 47.128 38.205 85.334 85.334 85.334s85.334-38.205 85.334-85.334z" />
<glyph unicode="&#xe90d;" glyph-name="check" d="M713.591 562.703c7.27-7.637 11.743-17.994 11.743-29.396 0-12.145-5.075-23.105-13.219-30.876l-0.017-0.016-153.13-145.664c-23.089-22.736-54.799-36.774-89.788-36.774-35.352 0-67.356 14.331-90.521 37.501v0l-65.706 58.624c-8.671 7.846-14.095 19.141-14.095 31.702 0 23.583 19.118 42.701 42.701 42.701 10.842 0 20.741-4.041 28.271-10.699l-0.046 0.040 67.627-60.33c7.85-8.787 19.214-14.292 31.864-14.292 10.914 0 20.871 4.098 28.416 10.839l-0.041-0.036q0.969 0.862 1.884 1.783l153.6 146.39c7.647 7.32 18.039 11.826 29.484 11.826 12.119 0 23.058-5.053 30.826-13.167l0.015-0.016z" />
<glyph unicode="&#xe90e;" glyph-name="check-circle" d="M512 959.574c-282.534 0-511.574-229.039-511.574-511.574s229.039-511.574 511.574-511.574c282.534 0 511.574 229.039 511.574 511.574v0c0 282.534-229.039 511.574-511.574 511.574v0zM512 21.689c-235.445 0-426.311 190.866-426.311 426.311s190.866 426.311 426.311 426.311c235.445 0 426.311-190.866 426.311-426.311v0c0-235.445-190.866-426.311-426.311-426.311v0zM713.591 562.703c7.27-7.637 11.743-17.994 11.743-29.396 0-12.145-5.075-23.105-13.219-30.876l-0.017-0.016-153.13-145.664c-23.089-22.736-54.799-36.774-89.788-36.774-35.352 0-67.356 14.331-90.521 37.501v0l-65.706 58.624c-8.671 7.846-14.095 19.141-14.095 31.702 0 23.583 19.118 42.701 42.701 42.701 10.842 0 20.741-4.041 28.271-10.699l-0.046 0.040 67.627-60.33c7.85-8.787 19.214-14.292 31.864-14.292 10.914 0 20.871 4.098 28.416 10.839l-0.041-0.036q0.969 0.862 1.884 1.783l153.6 146.39c7.647 7.32 18.039 11.826 29.484 11.826 12.119 0 23.058-5.053 30.826-13.167l0.015-0.016z" />
<glyph unicode="&#xe90f;" glyph-name="widget-dots" horiz-adv-x="240" d="M0 447.972c-0.1 1.835-0.157 3.983-0.157 6.144 0 66.227 53.688 119.915 119.915 119.915s119.915-53.688 119.915-119.915c0-66.212-53.663-119.89-119.869-119.915h-0.002c-0.876-0.024-1.908-0.037-2.942-0.037-63.475 0-115.134 50.59-116.856 113.649l-0.003 0.159zM10.069 49.771c-0.003 0.303-0.005 0.661-0.005 1.020 0 63.4 51.396 114.795 114.795 114.795s114.795-51.396 114.795-114.795c0-63.058-50.843-114.241-113.772-114.791h-1.076c-0.152-0.001-0.333-0.001-0.513-0.001-62.926 0-113.968 50.883-114.226 113.748v0.025zM0 846.172c-0.1 1.835-0.157 3.983-0.157 6.144 0 66.227 53.688 119.915 119.915 119.915s119.915-53.688 119.915-119.915c0-66.212-53.663-119.89-119.869-119.915h-0.002c-0.876-0.024-1.908-0.037-2.942-0.037-63.475 0-115.134 50.59-116.856 113.649l-0.003 0.159z" />
<glyph unicode="&#xe910;" glyph-name="check-file" d="M851.2 723.796l-148.736 148.736c-53.748 54.031-128.152 87.469-210.366 87.469-0.278 0-0.557 0-0.835-0.001h-192.596c-117.762-0.146-213.188-95.572-213.333-213.32v-597.347c0.146-117.762 95.572-213.187 213.32-213.333h426.68c117.762 0.145 213.188 95.571 213.333 213.319v363.32c0.001 0.236 0.001 0.515 0.001 0.794 0 82.212-33.437 156.615-87.454 210.35l-0.013 0.012zM790.868 663.466c12.66-13.038 23.713-27.747 32.768-43.736l0.555-1.064h-184.191c-23.564 0-42.667 19.102-42.667 42.666v0 184.192c17.054-9.609 31.763-20.662 44.852-33.373l-0.052 0.050zM853.332 149.333c0-70.692-57.308-128-128-128v0h-426.666c-70.692 0-128 57.308-128 128v0 597.333c0 70.692 57.308 128 128 128v0h192.639c7.040 0 13.782-1.365 20.694-2.005v-211.328c0-70.692 57.308-128 128-128v0h211.327c0.64-6.912 2.006-13.653 2.006-20.693zM713.556 392.063c7.27-7.637 11.743-17.994 11.743-29.396 0-12.145-5.075-23.106-13.22-30.876l-0.017-0.016-153.13-145.664c-23.089-22.736-54.8-36.775-89.789-36.775-35.351 0-67.356 14.331-90.52 37.501v0l-65.706 58.624c-8.671 7.846-14.095 19.141-14.095 31.702 0 23.583 19.118 42.701 42.701 42.701 10.842 0 20.741-4.041 28.271-10.699l-0.046 0.040 67.626-60.33c7.85-8.787 19.214-14.292 31.864-14.292 10.914 0 20.871 4.098 28.416 10.839l-0.041-0.036q0.968 0.863 1.884 1.783l153.6 146.39c7.647 7.321 18.040 11.828 29.486 11.828 12.118 0 23.057-5.052 30.824-13.165l0.015-0.016z" />
<glyph unicode="&#xe911;" glyph-name="chevron-down" d="M422.249 332.493l-195.668 195.626c-7.62 7.705-12.327 18.304-12.327 30.003 0 23.569 19.106 42.675 42.675 42.675 11.687 0 22.277-4.698 29.984-12.309l195.668-195.665c7.72-7.718 18.385-12.492 30.164-12.492s22.444 4.774 30.164 12.492l195.672 195.669c7.546 6.871 17.622 11.079 28.681 11.079 23.564 0 42.666-19.102 42.666-42.666 0-11.028-4.184-21.079-11.051-28.652l0.032 0.036-195.671-195.796c-23.162-23.154-55.156-37.475-90.494-37.475s-67.333 14.321-90.495 37.476v0z" />
<glyph unicode="&#xe912;" glyph-name="chevron-left" d="M396.493 537.751l195.625 195.668c7.713 7.668 18.345 12.408 30.084 12.408 23.569 0 42.675-19.106 42.675-42.675 0-11.727-4.73-22.35-12.387-30.063l-195.664-195.669c-7.718-7.72-12.492-18.385-12.492-30.164s4.774-22.444 12.492-30.164l195.667-195.672c6.871-7.546 11.079-17.622 11.079-28.681 0-23.564-19.102-42.666-42.666-42.666-11.028 0-21.079 4.184-28.652 11.051l0.036-0.032-195.796 195.671c-23.154 23.162-37.475 55.156-37.475 90.494s14.321 67.333 37.476 90.495v0z" />
<glyph unicode="&#xe913;" glyph-name="chevron-right" d="M627.507 358.249l-195.625-195.668c-7.713-7.668-18.345-12.408-30.084-12.408-23.569 0-42.675 19.106-42.675 42.675 0 11.727 4.73 22.35 12.387 30.063l195.666 195.669c7.718 7.72 12.492 18.385 12.492 30.164s-4.774 22.444-12.492 30.164l-195.669 195.672c-6.867 7.545-11.072 17.618-11.072 28.674 0 23.564 19.102 42.666 42.666 42.666 11.024 0 21.072-4.181 28.644-11.044l-0.036 0.032 195.798-195.671c23.154-23.162 37.475-55.156 37.475-90.494s-14.321-67.333-37.476-90.495v0z" />
<glyph unicode="&#xe914;" glyph-name="chevron-up" d="M601.75 563.507l195.669-195.625c7.73-7.724 12.511-18.397 12.511-30.188 0-23.569-19.106-42.675-42.675-42.675-11.778 0-22.442 4.772-30.164 12.488l-195.672 195.667c-7.72 7.718-18.385 12.492-30.164 12.492s-22.444-4.774-30.164-12.492l-195.672-195.667c-7.546-6.87-17.621-11.076-28.679-11.076-23.564 0-42.666 19.102-42.666 42.666 0 11.027 4.183 21.077 11.049 28.649l-0.032-0.036 195.671 195.797c23.162 23.154 55.156 37.475 90.494 37.475s67.332-14.321 90.495-37.475v0z" />
<glyph unicode="&#xe915;" glyph-name="clock-circle" d="M512 959.574c-282.534 0-511.574-229.039-511.574-511.574s229.039-511.574 511.574-511.574c282.534 0 511.574 229.039 511.574 511.574v0c0 282.534-229.039 511.574-511.574 511.574v0zM512 21.689c-235.445 0-426.311 190.866-426.311 426.311s190.866 426.311 426.311 426.311c235.445 0 426.311-190.866 426.311-426.311v0c0-235.445-190.866-426.311-426.311-426.311v0zM512 703.787c-23.544 0-42.631-19.087-42.631-42.631v0-184.381l-143.71-90.035c-12.143-7.675-20.089-21.028-20.089-36.237 0-23.597 19.129-42.726 42.726-42.726 8.388 0 16.212 2.417 22.813 6.593l-0.175-0.104 163.703 102.315c12.089 7.663 19.997 20.971 19.997 36.125 0 0.159-0.001 0.318-0.003 0.476v-0.024 207.998c0 23.544-19.087 42.631-42.631 42.631v0z" />
<glyph unicode="&#xe916;" glyph-name="cloud" d="M842.001 148.017h-660.001c-0.077 0-0.167 0-0.258 0-49.842 0-95.001 20.054-127.847 52.534l0.017-0.017c-33.269 32.32-53.912 77.48-53.912 127.463 0 48.123 19.136 91.776 50.213 123.765l-0.041-0.043q1.843 1.898 3.74 3.74c25.918 25.609 59.514 43.5 97.027 49.914l1.077 0.152v2.357c0.094 132.532 107.48 239.952 239.991 240.099h0.014c0.134 0 0.293 0 0.452 0 50.883 0 98.029-15.998 136.684-43.238l-0.751 0.502c28.078-19.685 51.217-44.396 68.556-73.013l0.603-1.072c26.869 16.829 59.518 26.81 94.498 26.81 89.549 0 163.819-65.411 177.639-151.061l0.137-1.032c39.43-6.217 73.83-24.307 100.267-50.437l-0.017 0.017c33.269-32.32 53.912-77.48 53.912-127.463 0-48.123-19.136-91.776-50.213-123.765l0.041 0.043q-1.843-1.898-3.74-3.74c-32.832-32.463-77.994-52.518-127.839-52.518-0.087 0-0.175 0-0.262 0h0.014zM181.999 447.988c-0.5 0.008-1.091 0.012-1.682 0.012-66.275 0-120.002-53.727-120.002-120.002 0-65.684 52.772-119.042 118.231-119.99l0.089-0.001q1.682-0.024 3.364 0h660.001c0.5-0.008 1.091-0.012 1.682-0.012 66.275 0 120.002 53.727 120.002 120.002 0 65.684-52.772 119.042-118.231 119.99l-0.089 0.001q-1.682 0.023-3.364 0h-30.007v30.007c0 0.041 0 0.090 0 0.139 0 66.197-53.664 119.861-119.861 119.861-32.788 0-62.5-13.165-84.141-34.497l0.014 0.014-32.293-31.704-16.618 42.099c-26.976 67.339-91.69 114.034-167.311 114.034-99.277 0-179.756-80.48-179.756-179.756 0-0.098 0-0.196 0-0.293v0.015c0.278-8.251 1.124-16.087 2.505-23.735l-0.148 0.989 5.374-37.243z" />
<glyph unicode="&#xe917;" glyph-name="cog" d="M953.759 573.542l-65.855 8.41c-5.472 15.391-10.701 27.738-16.521 39.745l1.027-2.348 40.53 52.217c10.705 13.44 17.176 30.666 17.176 49.404 0 22.109-9.009 42.113-23.556 56.543l-64.678 64.632c-14.462 14.782-34.614 23.947-56.906 23.947-18.677 0-35.851-6.434-49.428-17.205l0.164 0.126-52.313-40.627c-12.217 5.786-24.747 10.964-37.446 15.494l-8.361 65.518c-4.951 39.927-38.639 70.536-79.489 70.602h-92.152c-40.78-0.073-74.413-30.579-79.402-70.014l-0.041-0.396-8.388-65.855c-12.698-4.53-25.229-9.711-37.446-15.494l-52.217 40.604c-13.434 10.695-30.651 17.16-49.378 17.16-22.099 0-42.095-9.003-56.521-23.54l-64.631-64.634c-14.795-14.475-23.969-34.644-23.969-56.956 0-18.683 6.432-35.864 17.203-49.449l-0.126 0.165 40.579-52.241c-5.759-12.169-10.94-24.675-15.47-37.398l-65.542-8.386c-39.945-4.931-70.569-38.643-70.602-79.515v-92.148c0.163-40.731 30.594-74.306 69.958-79.403l0.403-0.043 65.855-8.41c5.471-15.402 10.7-27.757 16.521-39.772l-1.027 2.351-40.53-52.217c-10.702-13.44-17.172-30.666-17.172-49.403 0-22.084 8.988-42.069 23.505-56.497l0.004-0.004 64.772-64.988c14.459-14.641 34.531-23.709 56.72-23.709 18.733 0 35.957 6.463 49.563 17.281l-0.163-0.125 52.313 40.627c12.217-5.759 24.747-10.94 37.398-15.47l8.361-65.518c4.942-39.931 38.634-70.544 79.487-70.603h92.103c40.75 0.079 74.368 30.512 79.452 69.888l0.042 0.402 8.386 65.879c15.394 5.456 27.75 10.678 39.765 16.493l-2.344-1.023 52.217-40.506c13.437-10.717 30.666-17.196 49.409-17.196 22.099 0 42.094 9.008 56.514 23.552l0.005 0.006 64.627 64.676c14.789 14.464 23.959 34.621 23.959 56.919 0 18.671-6.429 35.84-17.193 49.414l0.126-0.165-40.627 52.313c4.752 9.608 9.973 21.955 14.578 34.597l0.892 2.8 65.542 8.386c39.921 4.935 70.527 38.62 70.578 79.464v92.15c-0.038 40.749-30.466 74.38-69.84 79.452l-0.401 0.042zM820.578 360.41c-7.666-26.417-17.453-49.365-29.593-70.806l0.847 1.625c-2.981-5.389-4.736-11.816-4.736-18.653 0-9.084 3.098-17.444 8.294-24.083l-0.065 0.086 55.855-74.65-67.71-65.060-71.904 55.879c-6.549 5.151-14.914 8.261-24.005 8.261-7.009 0-13.587-1.849-19.271-5.085l0.192 0.101c-19.687-11.324-42.475-21.154-66.42-28.302l-2.303-0.59c-14.984-4.284-26.133-16.922-28.172-32.429l-0.021-0.198-13.47-92.53-94.096 2.071-11.59 90.723c-2.075 15.632-13.165 28.209-27.797 32.438l-0.275 0.068c-26.395 7.664-49.319 17.426-70.748 29.526l1.639-0.851c-5.384 3.040-11.811 4.854-18.657 4.915h-0.283c-9.059-0.036-17.394-3.112-24.043-8.26l-74.559-55.787-65.013 67.638 56.072 71.952c5.18 6.53 8.311 14.891 8.311 23.982 0 7.023-1.868 13.61-5.134 19.29l0.1-0.188c-11.314 19.717-21.144 42.545-28.298 66.527l-0.593 2.316c-4.334 14.924-16.94 26.019-32.403 28.075l-0.199 0.022-92.552 13.47 2.071 94.096 90.747 11.469c15.694 2.013 28.34 13.122 32.583 27.798l0.068 0.275c7.647 26.39 17.409 49.315 29.519 70.737l-0.847-1.629c3.057 5.431 4.858 11.922 4.858 18.833 0 9.108-3.127 17.485-8.367 24.116l0.062-0.082-55.828 74.7 67.566 65.060 72.072-56.166c6.521-5.095 14.837-8.17 23.87-8.17 7.026 0 13.617 1.86 19.309 5.114l-0.191-0.101c19.746 11.281 42.612 21.066 66.631 28.162l2.309 0.585c14.926 4.343 26.021 16.956 28.074 32.425l0.022 0.199 13.47 92.748 94.096-2.12 11.446-90.868c2.081-15.642 13.179-28.228 27.821-32.462l0.275-0.068c26.375-7.652 49.283-17.406 70.695-29.5l-1.635 0.849c5.449-3.084 11.967-4.901 18.909-4.901 9.117 0 17.503 3.135 24.137 8.385l-0.081-0.062 74.627 55.808 64.867-67.662-55.879-71.906c-5.169-6.54-8.292-14.905-8.292-23.999 0-6.985 1.842-13.54 5.067-19.205l-0.101 0.192c11.227-19.723 20.965-42.567 28.021-66.559l0.582-2.309c4.269-14.988 16.916-26.139 32.432-28.148l0.195-0.021 92.53-13.47-2.097-94.074-90.482-11.494c-15.642-2.065-28.23-13.157-32.462-27.796l-0.068-0.275zM512 713.253c-146.495 0-265.253-118.758-265.253-265.253s118.758-265.253 265.253-265.253v0h0.024c146.49 0.007 265.241 118.762 265.241 265.253 0 146.495-118.758 265.253-265.253 265.253-0.004 0-0.008 0-0.013 0h0.001zM690.893 448c0-98.8-80.093-178.893-178.893-178.893s-178.893 80.093-178.893 178.893c0 98.8 80.093 178.893 178.893 178.893v0c98.756-0.108 178.785-80.136 178.893-178.882v-0.010z" />
<glyph unicode="&#xe918;" glyph-name="comment" d="M853.049 959.566h-682.098c-94.178 0-170.524-76.346-170.525-170.523v0-511.575c0-94.178 76.346-170.524 170.524-170.524 0 0 0 0 0.001 0h123.63l189.751-160.421c7.376-6.273 17.013-10.089 27.54-10.089s20.163 3.816 27.6 10.139l-0.061-0.050 190.007 160.421h123.63c0 0 0 0 0.001 0 94.178 0 170.524 76.346 170.524 170.524v511.575c-0.001 94.177-76.347 170.523-170.525 170.523v0zM938.311 277.468c0 0 0-0.001 0-0.001 0-47.089-38.173-85.262-85.262-85.262h-123.63c-21.038-0.007-40.293-7.631-55.159-20.265l0.122 0.101-162.382-137.143-162.297 137.144c-14.75 12.538-34.016 20.164-55.062 20.164-0.021 0-0.042 0-0.063 0h-123.627c-47.089 0-85.262 38.173-85.262 85.262v511.575c0.001 47.088 38.174 85.261 85.262 85.261h682.098c47.089 0 85.261-38.172 85.262-85.261v0zM405.422 661.149h213.156c0.044 0 0.096 0 0.148 0 23.545 0 42.631 19.087 42.631 42.631s-19.087 42.631-42.631 42.631c-0.052 0-0.104 0-0.156 0h-213.148c-0.044 0-0.096 0-0.148 0-23.545 0-42.631-19.087-42.631-42.631s19.087-42.631 42.631-42.631c0.052 0 0.104 0 0.156 0h-0.008zM725.156 575.886h-426.312c-23.545 0-42.631-19.087-42.631-42.631s19.087-42.631 42.631-42.631v0h426.312c23.545 0 42.631 19.087 42.631 42.631s-19.087 42.631-42.631 42.631v0zM725.156 405.362h-426.312c-23.545 0-42.631-19.087-42.631-42.631s19.087-42.631 42.631-42.631h426.312c23.545 0 42.631 19.087 42.631 42.631s-19.087 42.631-42.631 42.631v0z" />
<glyph unicode="&#xe919;" glyph-name="comment-typing" d="M853.049 959.566h-682.098c-94.178 0-170.524-76.346-170.525-170.523v0-511.575c0-94.178 76.346-170.524 170.524-170.524 0 0 0 0 0.001 0h123.63l189.751-160.421c7.376-6.273 17.013-10.089 27.54-10.089s20.163 3.816 27.6 10.139l-0.061-0.050 190.007 160.421h123.63c0 0 0 0 0.001 0 94.178 0 170.524 76.346 170.524 170.524v511.575c-0.001 94.177-76.347 170.523-170.525 170.523v0zM938.311 277.468c0 0 0-0.001 0-0.001 0-47.089-38.173-85.262-85.262-85.262h-123.63c-21.038-0.007-40.293-7.631-55.159-20.265l0.122 0.101-162.382-137.143-162.297 137.144c-14.75 12.538-34.016 20.164-55.062 20.164-0.021 0-0.042 0-0.063 0h-123.627c-47.089 0-85.262 38.173-85.262 85.262v511.575c0.001 47.088 38.174 85.261 85.262 85.261h682.098c47.089 0 85.261-38.172 85.262-85.261v0zM588.8 508.886c0-42.415-34.385-76.8-76.8-76.8s-76.8 34.385-76.8 76.8c0 42.415 34.385 76.8 76.8 76.8s76.8-34.385 76.8-76.8zM332.8 508.886c0-42.415-34.385-76.8-76.8-76.8s-76.8 34.385-76.8 76.8c0 42.415 34.385 76.8 76.8 76.8s76.8-34.385 76.8-76.8zM844.8 508.886c0-42.415-34.385-76.8-76.8-76.8s-76.8 34.385-76.8 76.8c0 42.415 34.385 76.8 76.8 76.8s76.8-34.385 76.8-76.8z" />
<glyph unicode="&#xe91a;" glyph-name="dashboard" d="M298.666 960h-128c-94.257 0-170.666-76.41-170.666-170.666v0-128c0-94.257 76.41-170.667 170.666-170.667h128c94.257 0 170.667 76.41 170.667 170.667v0 128c0 94.257-76.41 170.666-170.667 170.666v0zM384 661.334c0-47.128-38.205-85.334-85.334-85.334v0h-128c-47.128 0-85.333 38.205-85.333 85.333 0 0 0 0 0 0v0 128c0 47.128 38.205 85.333 85.333 85.333v0h128c0 0 0 0 0.001 0 47.128 0 85.333-38.205 85.333-85.333v0zM853.334 960h-128c-94.257 0-170.667-76.41-170.667-170.666v0-128c0-94.257 76.41-170.667 170.667-170.667v0h128c94.257 0 170.666 76.41 170.666 170.667v0 128c0 94.257-76.41 170.666-170.666 170.666v0zM938.666 661.334c0 0 0 0 0-0.001 0-47.128-38.205-85.333-85.333-85.333h-128c-47.128 0-85.334 38.205-85.334 85.334v0 128c0 47.128 38.205 85.333 85.333 85.333 0 0 0 0 0 0h128c47.128 0 85.333-38.205 85.333-85.333v0zM298.666 405.334h-128c-94.257 0-170.666-76.41-170.666-170.667v-128c0-94.257 76.41-170.666 170.666-170.666v0h128c94.257 0 170.667 76.41 170.667 170.666v0 128c0 94.257-76.41 170.667-170.667 170.667v0zM384 106.666c0-47.128-38.205-85.333-85.333-85.333 0 0 0 0 0 0h-128c-47.128 0-85.333 38.205-85.333 85.333v0 128c0 0 0 0 0 0.001 0 47.128 38.205 85.333 85.333 85.333h128c47.128 0 85.334-38.205 85.334-85.334v0zM853.334 405.334h-128c-94.257 0-170.667-76.41-170.667-170.667v0-128c0-94.257 76.41-170.666 170.667-170.666h128c94.257 0 170.666 76.41 170.666 170.666v0 128c0 94.257-76.41 170.667-170.666 170.667v0zM938.666 106.666c0-47.128-38.205-85.333-85.333-85.333v0h-128c0 0 0 0-0.001 0-47.128 0-85.333 38.205-85.333 85.333v128c0 47.128 38.205 85.334 85.334 85.334v0h128c47.128 0 85.333-38.205 85.333-85.333 0 0 0 0 0 0v0z" />
<glyph unicode="&#xe91b;" glyph-name="door" d="M858.871 960h-347.654c-55.801-0.136-101-45.335-101.136-101.123v-199.124h-246.618c-55.131-0.941-99.463-45.855-99.463-101.123 0-55.302 44.387-100.238 99.478-101.123l0.083-0.001h246.519v-420.37c0.136-55.801 45.335-101 101.123-101.136h347.667c55.8 0.138 100.998 45.336 101.136 101.123v821.717c-0.136 55.806-45.332 101.010-101.121 101.16h-0.014zM608.303 602.84c15.586 26.684 44.088 44.328 76.711 44.328 48.899 0 88.539-39.64 88.539-88.539s-39.64-88.539-88.539-88.539c-32.623 0-61.125 17.644-76.484 43.909l-0.226 0.419c-6.745 11.363-18.936 18.87-32.883 18.914h-411.859c-0.034 0-0.074 0-0.114 0-13.964 0-25.284 11.32-25.284 25.284s11.32 25.284 25.284 25.284c0.040 0 0.080 0 0.12 0h411.898c13.948 0.034 26.13 7.559 32.741 18.763l0.097 0.178zM485.884 457.506h69.632c30.353-38.644 77.080-63.237 129.551-63.237 37.18 0 71.475 12.348 99.009 33.166l-0.413-0.299c40.167 30.302 65.86 77.939 65.86 131.577 0 90.776-73.589 164.365-164.365 164.365-52.517 0-99.282-24.63-129.372-62.97l-0.269-0.356h-69.632v199.111c0.037 13.949 11.335 25.247 25.281 25.284h347.708c13.916-0.095 25.168-11.364 25.234-25.278v-821.71c-0.062-13.944-11.342-25.233-25.277-25.309h-347.612c-0.002 0-0.004 0-0.006 0-13.973 0-25.303 11.315-25.328 25.282v0.002zM647.069 184.346v-52.37c0-20.946 16.98-37.926 37.926-37.926s37.926 16.98 37.926 37.926v0 52.37c19.147 12.589 31.614 33.974 31.614 58.271 0 12.781-3.449 24.756-9.468 35.045l0.178-0.329c-12.242 20.931-34.61 34.768-60.21 34.768-38.394 0-69.518-31.124-69.518-69.518 0-24.274 12.441-45.642 31.294-58.076l0.261-0.162z" />
<glyph unicode="&#xe91c;" glyph-name="double-chevron-left" d="M549.478 537.751l195.625 195.668c7.734 7.792 18.449 12.615 30.291 12.615 23.569 0 42.675-19.106 42.675-42.675 0-11.83-4.814-22.536-12.589-30.265l-195.673-195.674c-7.718-7.72-12.492-18.385-12.492-30.164s4.774-22.444 12.492-30.164l195.67-195.672c6.87-7.546 11.076-17.621 11.076-28.679 0-23.564-19.102-42.666-42.666-42.666-11.027 0-21.077 4.183-28.649 11.049l0.036-0.032-195.797 195.671c-23.154 23.162-37.475 55.156-37.475 90.494s14.321 67.333 37.476 90.495v0zM243.512 537.751l195.625 195.668c7.713 7.668 18.345 12.408 30.084 12.408 23.569 0 42.675-19.106 42.675-42.675 0-11.727-4.73-22.35-12.387-30.063l-195.666-195.669c-7.718-7.72-12.492-18.385-12.492-30.164s4.774-22.444 12.492-30.164l195.669-195.672c6.87-7.546 11.076-17.621 11.076-28.679 0-23.564-19.102-42.666-42.666-42.666-11.027 0-21.077 4.183-28.649 11.049l0.036-0.032-195.797 195.671c-23.154 23.162-37.475 55.156-37.475 90.494s14.321 67.333 37.476 90.495v0z" />
<glyph unicode="&#xe91d;" glyph-name="double-chevron-right" d="M474.522 358.249l-195.625-195.668c-7.734-7.792-18.449-12.615-30.291-12.615-23.569 0-42.675 19.106-42.675 42.675 0 11.83 4.814 22.536 12.589 30.265l195.67 195.674c7.718 7.72 12.492 18.385 12.492 30.164s-4.774 22.444-12.492 30.164l-195.668 195.672c-6.875 7.547-11.086 17.626-11.086 28.689 0 23.564 19.102 42.666 42.666 42.666 11.032 0 21.086-4.187 28.66-11.059l-0.036 0.032 195.795-195.671c23.154-23.162 37.475-55.156 37.475-90.494s-14.321-67.333-37.476-90.495v0zM780.488 358.249l-195.625-195.668c-7.713-7.668-18.345-12.408-30.084-12.408-23.569 0-42.675 19.106-42.675 42.675 0 11.727 4.73 22.35 12.387 30.063l195.666 195.669c7.718 7.72 12.492 18.385 12.492 30.164s-4.774 22.444-12.492 30.164l-195.669 195.672c-6.87 7.546-11.076 17.621-11.076 28.679 0 23.564 19.102 42.666 42.666 42.666 11.027 0 21.077-4.183 28.649-11.049l-0.036 0.032 195.797-195.671c23.154-23.162 37.475-55.156 37.475-90.494s-14.321-67.333-37.476-90.495v0z" />
<glyph unicode="&#xe91e;" glyph-name="download" d="M938.311 234.834v-85.262c0-70.634-57.26-127.894-127.894-127.894v0h-596.835c-70.634 0-127.894 57.26-127.894 127.894v0 85.262c0 23.545-19.087 42.631-42.631 42.631s-42.631-19.087-42.631-42.631v0-85.262c0.146-117.664 95.492-213.010 213.142-213.156h596.849c117.664 0.146 213.010 95.492 213.156 213.142v85.276c0 23.545-19.087 42.631-42.631 42.631s-42.631-19.087-42.631-42.631v0zM227.123 382.444l195.507-195.549c23.175-23.064 55.133-37.323 90.42-37.323s67.245 14.258 90.426 37.328l195.5 195.544c7.402 7.658 11.963 18.102 11.963 29.612 0 23.545-19.087 42.631-42.631 42.631-11.51 0-21.954-4.561-29.624-11.974l-183.003-182.961v657.202c0 23.545-19.087 42.631-42.631 42.631s-42.631-19.087-42.631-42.631v0-657.244l-183.016 183.015c-7.763 8.030-18.632 13.015-30.665 13.015-23.545 0-42.631-19.087-42.631-42.631 0-11.512 4.563-21.957 11.978-29.628l-0.012 0.012z" />
<glyph unicode="&#xe91f;" glyph-name="edit" d="M795.989 920.32l-520.192-520.192c-38.585-38.383-62.465-91.518-62.465-150.229 0-0.21 0-0.42 0.001-0.63v0.032-57.302c0.001-23.564 19.103-42.666 42.667-42.666h57.301c0.178-0.001 0.388-0.001 0.599-0.001 58.711 0 111.845 23.879 150.219 62.456l520.201 520.201c24.060 24.117 38.937 57.404 38.937 94.165s-14.877 70.048-38.939 94.168l0.003-0.003c-24.423 23.376-57.614 37.766-94.165 37.766s-69.742-14.39-94.215-37.814l0.050 0.047zM923.989 792.32l-520.192-520.192c-23.212-23.074-55.175-37.366-90.478-37.461h-14.652v14.635c0.096 35.321 14.388 67.284 37.468 90.502l520.186 520.186c8.777 8.396 20.702 13.564 33.835 13.564s25.058-5.168 33.853-13.581l-0.018 0.017c8.643-8.666 13.987-20.626 13.987-33.834s-5.344-25.169-13.989-33.836l0.001 0.001zM981.332 576.897c-23.564 0-42.666-19.103-42.666-42.667v0-214.23h-170.666c-70.692 0-128-57.308-128-128v0-170.666h-426.667c-70.692 0-128 57.308-128 128v0 597.334c0 70.692 57.308 128 128 128v0h385.792c23.564 0 42.666 19.102 42.666 42.666s-19.102 42.666-42.666 42.666v0h-385.792c-117.762-0.146-213.187-95.571-213.333-213.319v-597.347c0.146-117.762 95.571-213.188 213.319-213.334h483.982c0.18-0.001 0.392-0.001 0.605-0.001 58.722 0 111.868 23.879 150.255 62.456l113.331 113.417c38.612 38.4 62.508 91.563 62.508 150.307 0 0.183 0 0.366-0.001 0.548v-0.028 271.53c0 23.564-19.103 42.667-42.667 42.667 0 0 0 0-0.001 0v0zM787.839 58.796c-16.65-16.611-37.893-28.625-61.659-33.973l-0.848-0.16v167.338c0 0 0 0.001 0 0.001 0 23.564 19.102 42.666 42.666 42.666 0 0 0.001 0 0.001 0h167.466c-5.614-24.57-17.608-45.775-34.143-62.474l0.010 0.010z" />
<glyph unicode="&#xe920;" glyph-name="email" d="M810.418 916.941h-596.835c-117.664-0.145-213.009-95.491-213.156-213.14v-511.588c0.146-117.663 95.492-213.008 213.142-213.154h596.849c117.664 0.145 213.010 95.492 213.156 213.142v511.586c-0.146 117.663-95.492 213.008-213.142 213.154h-0.014zM213.582 831.68h596.835c53.443-0.108 99.18-32.979 118.206-79.591l0.308-0.854-326.469-326.512c-23.18-23.090-55.155-37.365-90.463-37.365s-67.283 14.275-90.467 37.369l-326.465 326.508c19.334 47.466 65.072 80.337 118.501 80.445h0.014zM810.418 64.32h-596.835c0 0 0 0-0.001 0-70.633 0-127.893 57.26-127.893 127.893v0 447.627l275.568-275.399c38.608-38.514 91.895-62.329 150.744-62.329s112.135 23.815 150.748 62.333l275.564 275.393v-447.627c-0.001-70.633-57.26-127.891-127.893-127.891 0 0 0 0 0 0v0z" />
<glyph unicode="&#xe921;" glyph-name="eye-slash" d="M992.717 558.606c-39.784 64.491-87.501 119.511-142.733 165.869l-1.044 0.853 119.423 119.42c7.438 7.668 12.023 18.139 12.023 29.681 0 23.555-19.095 42.65-42.65 42.65-11.542 0-22.013-4.585-29.692-12.033l0.011 0.010-129.872-130.043c-75.042 45.296-165.667 72.095-262.552 72.095-1.277 0-2.553-0.005-3.828-0.014l0.196 0.001c-205.803-4.53-384.012-118.427-479.256-285.704l-1.461-2.786c-19.635-31.291-31.282-69.326-31.282-110.082s11.647-78.791 31.794-110.959l-0.512 0.877c39.784-64.491 87.501-119.511 142.732-165.87l1.043-0.852-119.423-119.422c-8.034-7.767-13.021-18.64-13.021-30.679 0-23.555 19.095-42.651 42.651-42.651 11.517 0 21.968 4.565 29.642 11.984l131.207 131.207c75.089-45.372 165.787-72.217 262.755-72.217 1.101 0 2.201 0.003 3.3 0.010l-0.169-0.001c205.803 4.53 384.012 118.427 479.256 285.704l1.461 2.786c19.635 31.291 31.282 69.326 31.282 110.082s-11.647 78.791-31.794 110.959l0.512-0.877zM103.959 383.098c-11.665 18.599-18.585 41.205-18.585 65.426s6.919 46.827 18.889 65.948l-0.304-0.522c81.878 145.091 233.004 242.664 407.331 247.828l0.71 0.017c0.717 0.004 1.565 0.007 2.413 0.007 73.469 0 142.643-18.393 203.168-50.824l-2.307 1.129-85.856-85.856c-33.115 22.263-73.89 35.534-117.765 35.534-117.589 0-212.913-95.324-212.913-212.913 0-43.875 13.271-84.65 36.018-118.53l-0.484 0.765-98.524-98.523c-51.947 42.223-95.737 91.973-130.344 147.997l-1.448 2.518zM639.952 448.524c0-70.666-57.286-127.952-127.952-127.952v0c-19.964 0.080-38.809 4.795-55.537 13.124l0.731-0.329 169.964 169.964c8-15.998 12.715-34.842 12.795-54.78v-0.026zM384.048 448.524c0 70.666 57.286 127.953 127.952 127.953v0c19.964-0.080 38.809-4.796 55.538-13.125l-0.731 0.329-169.964-169.964c-8 15.998-12.715 34.842-12.795 54.78v0.026zM920.041 383.098c-81.878-145.091-233.004-242.663-407.331-247.827l-0.71-0.017c-0.717-0.004-1.566-0.007-2.414-0.007-73.469 0-142.642 18.392-203.167 50.824l2.307-1.129 85.856 85.855c33.115-22.262 73.89-35.533 117.764-35.533 117.589 0 212.913 95.324 212.913 212.913 0 43.874-13.271 84.649-36.017 118.529l0.484-0.765 98.524 98.525c51.948-42.223 95.738-91.974 130.344-147.998l1.447-2.517c11.665-18.599 18.585-41.205 18.585-65.426s-6.919-46.827-18.889-65.948l0.304 0.522z" />
<glyph unicode="&#xe922;" glyph-name="facebook" d="M714.496 393.574l24.166 157.542h-151.142v102.4c-0.192 2.060-0.301 4.456-0.301 6.876 0 43.49 35.256 78.746 78.746 78.746 3.645 0 7.231-0.248 10.744-0.727l-0.408 0.046h68.71v134.093c-36.251 6.174-78.404 10.023-121.338 10.643l-0.62 0.007c-124.518 0-205.824-75.469-205.824-212.019v-120.064h-138.24v-157.542h138.24v-380.774h170.291v380.774z" />
<glyph unicode="&#xe923;" glyph-name="file" d="M725.332 362.666c0 0 0 0 0-0.001 0-23.564-19.102-42.666-42.666-42.666h-341.333c-23.501 0.084-42.519 19.154-42.519 42.667s19.018 42.583 42.511 42.667h341.341c23.564 0 42.666-19.102 42.666-42.666v0zM554.666 234.666h-213.333c-23.501-0.084-42.519-19.154-42.519-42.667s19.018-42.583 42.511-42.667h213.341c23.501 0.084 42.519 19.154 42.519 42.667s-19.018 42.583-42.511 42.667h-0.008zM938.666 512.639v-363.306c-0.145-117.762-95.571-213.188-213.319-213.333h-426.68c-117.762 0.145-213.188 95.571-213.333 213.319v597.347c0.145 117.763 95.571 213.189 213.32 213.334h192.653c0.227 0.001 0.496 0.001 0.764 0.001 82.235 0 156.661-33.436 210.424-87.456l0.011-0.012 148.65-148.736c54.055-53.733 87.51-128.136 87.51-210.353 0-0.283 0-0.566-0.001-0.849v0.044zM642.175 812.202c-13.047 12.649-27.771 23.689-43.776 32.726l-1.067 0.554v-184.15c0-23.564 19.103-42.666 42.667-42.666 0 0 0 0 0.001 0h184.149c-9.592 17.059-20.646 31.77-33.369 44.849l0.047-0.049zM853.332 512.639c0 7.040-1.366 13.782-2.006 20.694h-211.327c-70.692 0-128 57.308-128 128v0 211.327c-6.912 0.64-13.696 2.006-20.694 2.006h-192.64c-70.692 0-128-57.308-128-128v0-597.333c0-70.692 57.308-128 128-128v0h426.666c70.692 0 128 57.308 128 128v0z" />
<glyph unicode="&#xe924;" glyph-name="filter" d="M384.047 346.453v-239.788c0 0 0-0.001 0-0.001 0-13.909 6.657-26.264 16.958-34.052l0.107-0.078 170.665-128c7.042-5.328 15.947-8.534 25.602-8.534 23.564 0 42.666 19.102 42.668 42.665v0 367.788l299.217 336.725c26.020 29.23 41.917 67.97 41.917 110.422 0 91.831-74.388 166.288-166.193 166.4h-605.876c-91.855-0.060-166.294-74.537-166.294-166.4 0-42.432 15.882-81.154 42.025-110.546l-0.147 0.168zM209.113 874.665h605.865c44.736-0.045 80.984-36.322 80.984-81.064 0-20.645-7.718-39.488-20.426-53.8l0.073 0.083-310.103-348.888c-6.691-7.495-10.784-17.434-10.794-28.329v-298.667l-85.335 64v234.665c0 0.004 0 0.009 0 0.013 0 10.887-4.078 20.823-10.789 28.361l0.037-0.043-310.143 348.928c-12.613 14.223-20.316 33.050-20.316 53.676 0 44.729 36.226 80.997 80.939 81.065h0.007z" />
<glyph unicode="&#xe925;" glyph-name="glasses" d="M853.049 959.574c-94.178 0-170.524-76.346-170.524-170.524 0 0 0 0 0-0.001v0c0-23.545 19.087-42.631 42.631-42.631s42.631 19.087 42.631 42.631v0c0 0.062 0 0.135 0 0.209 0 47.089 38.173 85.262 85.262 85.262s85.262-38.173 85.262-85.262c0-0.073 0-0.147 0-0.22v0.011-470.051c-35.011 27.143-79.517 43.571-127.855 43.74h-0.039c-73.268-0.033-137.888-37.027-176.231-93.347l-0.475-0.74c-30.868 31.754-73.989 51.457-121.712 51.457-45.984 0-87.696-18.293-118.255-47.999l0.040 0.039q-1.773-1.723-3.497-3.497c-38.818 57.060-103.438 94.054-176.7 94.087h-0.005c-48.376-0.169-92.883-16.596-128.376-44.099l0.482 0.36v470.051c0 0.062 0 0.135 0 0.209 0 47.089 38.173 85.262 85.262 85.262s85.262-38.173 85.262-85.262c0-0.073 0-0.147 0-0.22v0.011c0-23.545 19.087-42.631 42.631-42.631s42.631 19.087 42.631 42.631v0c0 0.088 0 0.192 0 0.295 0 94.178-76.346 170.525-170.525 170.525s-170.525-76.346-170.525-170.525c0-0.104 0-0.208 0-0.312v0.016-639.466c0-0.098 0-0.214 0-0.33 0-117.723 95.433-213.156 213.156-213.156s213.156 95.433 213.156 213.156c0 0.116 0 0.232 0 0.348v-0.018c0 47.089 38.173 85.262 85.262 85.262s85.262-38.173 85.262-85.262v0c0-0.098 0-0.214 0-0.33 0-117.723 95.433-213.156 213.156-213.156s213.156 95.433 213.156 213.156c0 0.116 0 0.232 0 0.348v-0.018 639.466c0 94.178-76.346 170.525-170.525 170.525v0zM213.582 21.689c0 0 0 0-0.001 0-70.634 0-127.894 57.26-127.894 127.894s57.26 127.894 127.894 127.894c70.634 0 127.894-57.26 127.894-127.894v0c0 0 0 0 0-0.001 0-70.633-57.26-127.893-127.893-127.893v0zM810.418 21.689c-70.634 0-127.894 57.26-127.894 127.894s57.26 127.894 127.894 127.894c70.634 0 127.894-57.26 127.894-127.894v0c0 0 0 0 0-0.001 0-70.633-57.26-127.893-127.893-127.893 0 0 0 0-0.001 0v0z" />
<glyph unicode="&#xe926;" glyph-name="globe" d="M512 959.574c-282.534 0-511.574-229.039-511.574-511.574s229.039-511.574 511.574-511.574c282.534 0 511.574 229.039 511.574 511.574v0c0 282.534-229.039 511.574-511.574 511.574v0zM880.631 661.156h-137.315c-33.051 75.643-73.352 140.861-121.433 199.449l1.17-1.469c110.588-30.765 201.054-101.824 256.489-195.979l1.090-2.001zM703.84 448c-0.381-45.798-7.775-89.734-21.157-130.973l0.864 3.079h-343.095c-12.518 38.158-19.912 82.095-20.291 127.704l-0.001 0.189c0.381 45.798 7.775 89.734 21.157 130.973l-0.864-3.079h343.095c12.518-38.158 19.912-82.095 20.291-127.704l0.001-0.189zM374.643 234.844h274.715c-38.332-74.809-84.095-139.162-137.738-195.998l0.381 0.407c-53.285 56.418-99.052 120.774-135.168 190.912l-2.19 4.679zM374.643 661.156c38.332 74.809 84.095 139.162 137.738 195.998l-0.381-0.407c53.285-56.418 99.052-120.774 135.168-190.912l2.19-4.679zM401.159 859.136c-46.991-57.119-87.36-122.336-118.363-192.612l-2.113-5.368h-137.315c56.572 96.196 147.118 167.266 254.783 197.265l3.007 0.715zM105.341 575.894h146.609c-10.553-38.29-16.757-82.304-17.051-127.72l-0.001-0.174c0.294-45.589 6.498-89.603 17.881-131.484l-0.831 3.59h-146.606c-12.465 38.23-19.653 82.222-19.653 127.894s7.188 89.664 20.493 130.909l-0.841-3.015zM143.369 234.844h137.315c33.116-75.644 73.485-140.861 121.637-199.436l-1.162 1.456c-110.673 30.715-201.219 101.785-256.701 195.98l-1.089 2zM623.053 36.864c46.912 57.119 87.213 122.337 118.153 192.605l2.111 5.375h137.315c-56.525-96.157-146.991-167.216-254.57-197.263l-3.008-0.717zM918.658 320.102h-146.608c10.553 38.292 16.757 82.307 17.051 127.725l0.001 0.173c-0.295 45.59-6.499 89.604-17.884 131.484l0.831-3.59h146.523c12.465-38.23 19.653-82.222 19.653-127.894s-7.188-89.664-20.493-130.909l0.841 3.015z" />
<glyph unicode="&#xe927;" glyph-name="globe-search" d="M273.975 536.214c0.269 35.009 5.682 68.654 15.52 100.352l-0.657-2.457h270.328c4.863-15.775 8.9-34.635 11.338-53.993l0.175-1.704c2.043 0.797 4.128 1.512 6.191 2.272 2.116 0.778 4.212 1.591 6.349 2.328 15.523 5.554 34.058 10.325 53.144 13.457l1.909 0.259c2.144 0.344 4.294 0.684 6.451 0.987 2.128 0.3 4.216 0.713 6.356 0.973-1.843 11.869-3.635 23.753-6.484 35.422h106.384c3.25-10.736 6.338-24.218 8.605-37.978l0.27-1.985c2.431-0.512 4.762-1.28 7.168-1.847 2.403-0.563 4.762-1.225 7.146-1.841 22.729-5.92 42.382-13.236 61.054-22.26l-1.969 0.858c2.237-1.065 4.484-2.116 6.693-3.226 2.216-1.113 4.513-2.072 6.697-3.231-14.145 222.517-198.082 397.636-422.92 397.636-234.016 0-423.724-189.708-423.724-423.724 0-224.58 174.717-408.353 395.641-422.808l1.263-0.066c-1.153 2.181-2.119 4.472-3.226 6.685-1.11 2.212-2.169 4.454-3.226 6.696-20.168 41.412-31.983 90.087-32.041 141.515v0.020c0 1.306 0.181 2.572 0.197 3.875 0.040 3.619 0.388 7.159 0.544 10.752 0.175 4 0.29 8.016 0.606 11.975-11.806 16.873-24.109 36.682-35.382 57.139l-1.759 3.482h47.781c0.591 2.169 1.053 4.384 1.69 6.537 0.634 2.163 1.15 4.369 1.831 6.516 6.994 21.839 15.094 40.544 24.769 58.266l-0.864-1.729c1.187 2.216 2.515 4.335 3.753 6.519 1.26 2.222 2.669 4.344 3.975 6.535h-116.714c-9.177 29.209-14.59 62.819-14.862 97.653l-0.001 0.141zM617.037 716.73c-24.175 54.465-52.39 101.394-85.546 144.312l1.187-1.598c76.344-26.092 138.778-76.264 179.77-141.307l0.827-1.406zM322.616 716.73c29.103 54.679 62.797 101.816 101.796 143.975l-0.409-0.447c38.607-41.704 72.303-88.843 99.617-139.909l1.768-3.619zM134.731 716.73c41.848 66.477 104.34 116.657 178.356 142.002l2.391 0.712c-32.028-41.323-60.3-88.25-82.782-138.34l-1.755-4.374zM203.409 438.42h-106.437c-9.147 29.28-14.416 62.946-14.416 97.843s5.269 68.563 15.055 100.247l-0.639-2.404h106.435c-7.472-29.327-11.857-63.038-12.059-97.74l-0.001-0.128c0.203-34.814 4.59-68.507 12.681-100.729l-0.619 2.911zM230.941 355.77c24.222-54.462 52.495-101.389 85.715-144.291l-1.178 1.582c-76.408 26.053-138.899 76.233-179.92 141.305l-0.827 1.405zM1009.009 23.145l-123.238 123.238c22.476 34.618 35.841 76.957 35.841 122.418 0 70.876-32.484 134.165-83.377 175.79l-0.405 0.321c-1.834 1.528-3.635 3.081-5.522 4.557-1.922 1.5-3.659 3.203-5.628 4.644-15.097 11.201-32.358 20.875-50.799 28.219l-1.545 0.543c-2.078 0.806-4.319 1.25-6.425 1.997-2.028 0.717-4.131 1.256-6.188 1.919-20.978 7.391-45.173 11.816-70.355 12.155l-0.158 0.002c-13.326-0.258-26.158-1.611-38.631-3.976l1.428 0.225c-2.219-0.362-4.581-0.259-6.778-0.684-2.256-0.438-4.419-1.047-6.65-1.55-23.15-5.526-43.545-13.821-62.246-24.707l1.084 0.582c-2.544-1.422-5.197-2.65-7.68-4.166-2.447-1.494-5.185-2.528-7.569-4.109-10.236-7.081-19.195-14.356-27.563-22.25l0.113 0.106c-2.534-2.307-5.494-4.122-7.922-6.535-2.025-2.016-3.587-4.431-5.537-6.519-15.123-16.254-28.011-34.879-37.993-55.191l-0.601-1.353c-1.084-2.231-2.522-4.243-3.538-6.516-0.981-2.196-2.059-4.306-2.975-6.537-10.934-25.776-17.305-55.749-17.344-87.207v-0.015c0-3.288 0.831-6.349 0.969-9.603 0.15-3.641 0.763-7.144 1.081-10.738 0.285-3.197 0.55-6.391 0.963-9.547 5.16-39.954 19.951-75.7 41.957-105.845l-0.451 0.648c1.453-2 3.191-3.756 4.71-5.706 1.466-1.884 3.028-3.681 4.55-5.519 41.948-51.478 105.348-84.090 176.365-84.090 45.461 0 87.801 13.364 123.304 36.378l-0.885-0.538 123.238-123.238c9.259-9.233 22.036-14.942 36.147-14.942 28.273 0 51.192 22.92 51.192 51.192 0 14.111-5.709 26.888-14.944 36.148l0.001-0.001zM691.211 140.547c-25.932 0.016-50.046 7.79-70.148 21.128l0.47-0.293c-2.031 1.325-3.878 2.844-5.831 4.278-1.969 1.446-3.763 3.1-5.644 4.656-14.955 12.273-26.933 27.599-35.074 45.073l-0.329 0.787c-0.906 2.006-1.684 4.045-2.487 6.106-0.881 2.266-1.425 4.684-2.178 7.014-2.995 8.894-5.086 19.213-5.852 29.899l-0.023 0.407c-0.212 3.010-0.903 5.881-0.903 8.947l0.034 0.344c1.91 37.279 17.963 70.476 42.852 94.612l0.036 0.035c2.062 1.847 4.225 3.569 6.403 5.284 21.387 17.272 48.904 27.726 78.863 27.726 39.592 0 74.92-18.258 98.023-46.813l0.186-0.237c1.55-1.881 3.209-3.668 4.653-5.638 1.437-1.966 2.931-3.85 4.256-5.894 12.972-19.659 20.694-43.777 20.694-69.698 0-70.538-57.183-127.721-127.721-127.721-0.098 0-0.196 0-0.294 0h0.015z" />
<glyph unicode="&#xe928;" glyph-name="histogram" d="M875.784 596.48h-727.571c0 0-0.001 0-0.001 0-81.855 0-148.212-66.357-148.212-148.212 0-0.001 0-0.001 0-0.002v0-0.531c0-0.001 0-0.002 0-0.004 0-81.855 66.357-148.212 148.212-148.212 0 0 0.001 0 0.001 0h727.571c0 0 0.001 0 0.002 0 81.856 0 148.214 66.358 148.214 148.214 0 0 0 0.001 0 0.001v0 0.531c0 81.856-66.358 148.214-148.214 148.214-0.001 0-0.001 0-0.002 0v0zM875.784 386.56h-727.571c-33.932 0-61.44 27.508-61.44 61.44s27.508 61.44 61.44 61.44h727.571c33.932 0 61.44-27.508 61.44-61.44s-27.508-61.44-61.44-61.44v0zM627.216 232.957h-479.003c0 0-0.001 0-0.001 0-81.855 0-148.212-66.357-148.212-148.212 0 0 0 0 0-0.001v0-0.531c0 0 0-0.001 0-0.002 0-81.855 66.357-148.212 148.212-148.212 0 0 0.001 0 0.001 0h479.003c0 0 0.001 0 0.001 0 81.855 0 148.211 66.356 148.211 148.211 0 0 0 0.001 0 0.001v0 0.531c0 0.001 0 0.001 0 0.002 0 81.855-66.356 148.211-148.211 148.211 0 0-0.001 0-0.001 0v0zM627.216 23.042h-479.003c-33.69 0.317-60.879 27.702-60.879 61.437s27.189 61.12 60.849 61.437h479.033c33.69-0.317 60.879-27.702 60.879-61.437s-27.189-61.12-60.849-61.437h-0.030zM148.213 663.045h218.953c0.001 0 0.001 0 0.002 0 81.855 0 148.212 66.357 148.212 148.212 0 0 0 0 0 0.001v0 0.528c0 81.856-66.357 148.214-148.214 148.215h-218.953c-81.856-0.001-148.213-66.359-148.213-148.215v0-0.528c0 0 0 0 0-0.001 0-81.855 66.357-148.212 148.212-148.212 0 0 0.001 0 0.001 0v0zM148.213 872.96h218.953c33.932 0 61.44-27.508 61.44-61.44s-27.508-61.44-61.44-61.44h-218.953c-33.932 0-61.44 27.508-61.44 61.44s27.508 61.44 61.44 61.44v0z" />
<glyph unicode="&#xe929;" glyph-name="key" d="M320.004-64c-176.642 0.117-319.794 143.341-319.794 320 0 145.725 97.408 268.699 230.664 307.363l2.26 0.562c25.928 7.71 55.718 12.147 86.545 12.147 28.093 0 55.325-3.685 81.24-10.598l-2.196 0.498 337.408 337.322c34.791 35.026 82.98 56.705 136.233 56.705 0.196 0 0.391 0 0.587-0.001h-0.030c83.294-0.073 150.797-67.576 150.869-150.863v-0.007c0-0.149 0.001-0.325 0.001-0.501 0-53.276-21.66-101.492-56.655-136.324l-28.679-28.679c-15.478-15.375-36.786-24.897-60.318-24.96h-67.681v-42.666c0-47.128-38.205-85.334-85.334-85.334v0h-42.666v-67.669c0-0.068 0-0.149 0-0.229 0-23.491-9.559-44.749-24.999-60.097l-27.738-27.738c6.457-23.739 10.167-50.995 10.167-79.118 0-30.788-4.447-60.538-12.732-88.642l0.56 2.213c-36.218-124.691-142.769-216.909-272.801-231.504l-1.46-0.133c-10.020-1.103-21.654-1.738-33.434-1.75h-0.017zM320.004 490.666c-0.067 0-0.147 0-0.228 0-129.603 0-234.666-105.064-234.666-234.666s105.064-234.666 234.666-234.666c106.968 0 197.219 71.57 225.481 169.436l0.41 1.657c5.71 19.098 8.997 41.043 8.997 63.756 0 27.621-4.86 54.106-13.772 78.648l0.509-1.603c-1.492 4.165-2.355 8.971-2.355 13.978 0 11.788 4.781 22.46 12.509 30.182v0l45.568 45.61v67.67c0 0 0 0 0 0.001 0 47.128 38.205 85.334 85.334 85.334h42.666v42.666c0 0 0 0 0 0.001 0 47.128 38.205 85.334 85.334 85.334h67.669l28.672 28.672c19.557 19.467 31.659 46.408 31.659 76.176 0 0.099 0 0.198 0 0.297v-0.015c-0.024 36.17-29.327 65.488-65.488 65.536h-0.005c-0.078 0-0.171 0-0.264 0-29.795 0-56.76-12.119-76.233-31.697l-355.46-355.419c-7.72-7.716-18.384-12.489-30.162-12.489-5.030 0-9.858 0.871-14.339 2.469l0.298-0.093c-22.931 8.338-49.399 13.18-76.993 13.226h-0.021zM213.124 192c0-23.564 19.102-42.666 42.666-42.666s42.666 19.102 42.666 42.666c0 23.564-19.102 42.666-42.666 42.666v0c-23.564 0-42.666-19.102-42.666-42.666v0z" />
<glyph unicode="&#xe92a;" glyph-name="lightbulb" d="M767.825 862.371c-67.594 60.631-157.402 97.703-255.869 97.703-212.017 0-383.891-171.874-383.891-383.891 0-110.892 47.018-210.802 122.207-280.882l0.229-0.211c54.434-47.908 89.129-117.127 90.951-194.48l0.006-0.317v-6.868c0.096-86.904 70.52-157.328 157.415-157.424h26.46c86.904 0.096 157.328 70.52 157.425 157.415v23.43c1.382 68.636 33.007 129.617 82.051 170.349l0.373 0.301c80.417 70.691 130.898 173.775 130.898 288.65 0 113.634-49.396 215.73-127.886 285.989l-0.366 0.322zM525.333 21.325h-26.451c-39.8 0.049-72.051 32.299-72.099 72.095v0.005s-0.298 11.092-0.342 13.225h170.991v-13.225c-0.049-39.8-32.299-72.051-72.095-72.099h-0.005zM708.783 351.574c-47.477-41.338-82.714-95.595-100.292-157.293l-0.562-2.307h-53.159v306.486c49.97 18.041 85.089 64.958 85.325 120.109v0.029c0 23.562-19.101 42.662-42.662 42.662s-42.662-19.101-42.662-42.662v0c0-23.562-19.101-42.662-42.662-42.662s-42.662 19.101-42.662 42.662v0c0 23.562-19.101 42.662-42.662 42.662s-42.662-19.101-42.662-42.662v0c0.236-55.18 35.355-102.097 84.434-119.855l0.891-0.282v-306.487h-56.4c-20.308 65.827-56.485 121.754-104.154 165.317l-0.283 0.255c-58.554 54.668-95.051 132.316-95.051 218.488 0 152.589 114.44 278.449 262.174 296.433l1.437 0.142c10.584 1.25 22.845 1.963 35.271 1.963 0.019 0 0.037 0 0.056 0h-0.003c0.261 0.001 0.57 0.001 0.879 0.001 76.107 0 145.488-28.794 197.844-76.083l-0.258 0.23c61.348-54.882 99.779-134.287 99.779-222.667 0-89.342-39.271-169.511-101.492-224.189l-0.335-0.288z" />
<glyph unicode="&#xe92b;" glyph-name="like" d="M971.173 575.557c-39.248 45.056-96.719 73.37-160.803 73.37-0.016 0-0.031 0-0.047 0h-170.053l14.324 87.010c1.104 6.351 1.735 13.664 1.735 21.125 0 71.505-57.966 129.471-129.471 129.471-50.679 0-94.558-29.118-115.818-71.537l-0.339-0.747-81.596-165.325h-115.616c-117.664-0.145-213.010-95.492-213.156-213.142v-213.17c0.146-117.664 95.492-213.010 213.142-213.155h567.008c107.032 0.452 195.502 79.343 210.922 182.136l0.145 1.178 30.054 213.156c1.31 8.879 2.058 19.128 2.058 29.551 0 53.739-19.887 102.834-52.702 140.326l0.212-0.247zM85.597 222.614v213.156c0.001 70.633 57.261 127.891 127.894 127.891h85.262v-468.941h-85.262c-70.634 0-127.894 57.26-127.894 127.894v0zM936.983 417.907l-30.097-213.158c-9.267-62.342-62.253-109.677-126.365-110.029h-396.506v480.283c3.961 3.463 7.241 7.587 9.693 12.217l0.112 0.231 93.32 189.069c7.938 14.117 22.821 23.498 39.895 23.498 13.236 0 25.156-5.638 33.489-14.643l0.028-0.030c6.56-7.594 10.555-17.562 10.555-28.464 0-2.595-0.226-5.138-0.661-7.609l0.038 0.262-22.509-136.419c-0.35-2.051-0.55-4.414-0.55-6.823 0-23.542 19.084-42.627 42.626-42.629h220.275c0.005 0 0.010 0 0.016 0 70.634 0 127.895-57.26 127.895-127.895 0-6.301-0.456-12.495-1.336-18.552l0.082 0.69z" />
<glyph unicode="&#xe92c;" glyph-name="link" d="M590.746 223.36l-139.162-139.162c-38.606-37.629-91.424-60.838-149.662-60.838-118.467 0-214.503 96.036-214.503 214.503 0 58.217 23.192 111.017 60.842 149.665l-0.045-0.047 139.162 139.29c7.612 7.703 12.314 18.296 12.314 29.988 0 23.566-19.104 42.671-42.671 42.671-11.702 0-22.303-4.71-30.012-12.338l0.004 0.004-139.12-139.293c-53.984-54.213-87.358-128.986-87.358-211.554 0-165.596 134.242-299.838 299.838-299.838 82.621 0 157.436 33.417 211.668 87.472l139.154 139.154c7.404 7.663 11.967 18.113 11.967 29.628 0 23.562-19.1 42.662-42.662 42.662-11.515 0-21.965-4.562-29.64-11.978l0.012 0.012zM936.262 872.073c-53.95 54.311-128.675 87.928-211.251 87.928-0.259 0-0.517 0-0.775-0.001h0.040c-0.235 0.001-0.512 0.001-0.79 0.001-82.514 0-157.193-33.547-211.141-87.747l-0.011-0.011-139.376-139.204c-7.804-7.735-12.636-18.458-12.636-30.31 0-23.566 19.104-42.67 42.67-42.67 11.841 0 22.556 4.823 30.287 12.612l139.294 139.165c38.592 38.817 92.026 62.842 151.072 62.842 0.193 0 0.385 0 0.578-0.001h-0.030c118.436-0.041 214.432-96.061 214.432-214.503 0-59.226-24.003-112.846-62.812-151.662l-139.161-139.161c-7.853-7.745-12.718-18.503-12.718-30.397 0-23.575 19.111-42.685 42.685-42.685 11.894 0 22.652 4.865 30.392 12.713l139.167 139.082c54.189 54.304 87.698 129.263 87.698 212.049 0 82.742-33.474 157.667-87.618 211.969l0.007-0.007zM609.858 606.208l-255.97-255.972c-8.003-7.764-12.969-18.618-12.969-30.633 0-23.562 19.1-42.662 42.662-42.662 11.494 0 21.926 4.545 29.597 11.937l257.004 257.004c7.422 7.666 11.996 18.129 11.996 29.659 0 23.562-19.1 42.662-42.662 42.662-11.53 0-21.992-4.574-29.669-12.006l0.012 0.011z" />
<glyph unicode="&#xe92d;" glyph-name="linkedin" d="M302.106 67.379h-157.901v508.467h157.901zM223.053 645.171c-0.121-0.001-0.265-0.001-0.409-0.001-50.729 0-91.853 41.124-91.853 91.853s41.124 91.853 91.853 91.853c50.585 0 91.619-40.89 91.852-91.42v-0.124c0-0.001 0-0.002 0-0.003 0-50.647-40.854-91.751-91.405-92.157h-0.039zM893.056 67.379h-157.594v247.501c0 58.982-1.178 134.656-81.92 134.656-81.92 0-94.669-64.102-94.669-130.406v-251.75h-157.901v508.467h151.45v-69.427h2.202c29.334 49.426 82.427 82.038 143.137 82.038 2.203 0 4.397-0.043 6.579-0.128l-0.314 0.010c159.795 0 189.184-105.216 189.184-241.92v-279.296z" />
<glyph unicode="&#xe92e;" glyph-name="lock" d="M682.243 447.6c-7.714 7.712-18.37 12.482-30.14 12.482s-22.426-4.77-30.141-12.482l-110.244-110.243-110.244 110.244c-7.658 7.402-18.102 11.963-29.612 11.963-23.545 0-42.631-19.087-42.631-42.631 0-11.51 4.561-21.954 11.974-29.624l110.232-110.232-110.244-110.244c-7.402-7.658-11.963-18.102-11.963-29.612 0-23.545 19.087-42.631 42.631-42.631 11.51 0 21.954 4.561 29.624 11.974l110.232 110.232 110.244-110.244c7.659-7.406 18.106-11.97 29.62-11.97 23.545 0 42.631 19.087 42.631 42.631 0 11.513-4.564 21.96-11.981 29.631l0.011-0.012-110.244 110.244 110.244 110.244c7.712 7.714 12.481 18.37 12.481 30.14s-4.77 22.426-12.481 30.14v0zM725.156 618.445h-426.312v42.634c0 0.018 0 0.038 0 0.059 0 117.723 95.433 213.156 213.156 213.156 79.849 0 149.443-43.905 185.958-108.891l0.553-1.071c7.41-13.234 21.343-22.032 37.33-22.032 23.55 0 42.641 19.091 42.641 42.641 0 7.634-2.006 14.799-5.52 20.998l0.11-0.212c-51.907 92.437-149.316 153.87-261.073 153.87-164.812 0-298.418-133.606-298.418-298.418 0-0.035 0-0.070 0-0.105v0.005-60.707c-75.829-33.7-127.776-108.309-127.893-195.065v-255.802c0.146-117.664 95.491-213.010 213.141-213.156h426.326c117.664 0.146 213.010 95.492 213.155 213.142v255.802c-0.146 117.663-95.492 213.008-213.141 213.153h-0.014zM853.049 149.504c-0.001-70.633-57.26-127.892-127.893-127.892h-426.312c-70.633 0-127.892 57.259-127.893 127.892v0 255.788c0 0 0 0 0 0.001 0 70.633 57.26 127.893 127.893 127.893h426.312c70.633 0 127.893-57.26 127.893-127.893 0 0 0 0 0 0v0z" />
<glyph unicode="&#xe92f;" glyph-name="lock-close" d="M810.666 600.576v60.758c0 164.949-133.718 298.666-298.666 298.666s-298.666-133.718-298.666-298.666v0-60.758c-75.892-33.728-127.882-108.399-128-195.227v-256.015c0.145-117.762 95.571-213.188 213.319-213.333h426.681c117.762 0.146 213.188 95.571 213.333 213.32v256.014c-0.118 86.843-52.108 161.515-126.643 194.703l-1.357 0.54zM298.666 661.334c0 117.821 95.513 213.334 213.334 213.334s213.334-95.513 213.334-213.334v0-42.667h-426.667zM853.334 149.334c0-70.692-57.308-128-128-128v0h-426.667c-70.692 0-128 57.308-128 128v0 256c0 70.692 57.308 128 128 128v0h426.667c70.692 0 128-57.308 128-128v0zM512 362.666c0 0 0 0-0.001 0-23.564 0-42.666-19.102-42.666-42.666 0 0 0 0 0-0.001v0-85.334c0-23.564 19.102-42.666 42.666-42.666s42.666 19.102 42.666 42.666v0 85.334c0 0 0 0 0 0.001 0 23.564-19.102 42.666-42.666 42.666 0 0 0 0-0.001 0v0z" />
<glyph unicode="&#xe930;" glyph-name="logout" d="M298.834 21.689h-85.262c-70.634 0-127.894 57.26-127.894 127.894v0 596.835c0 70.634 57.26 127.894 127.894 127.894v0h85.262c23.545 0 42.631 19.087 42.631 42.631s-19.087 42.631-42.631 42.631v0h-85.262c-117.664-0.146-213.010-95.492-213.156-213.142v-596.849c0.146-117.664 95.492-213.010 213.142-213.156h85.276c23.545 0 42.631 19.087 42.631 42.631s-19.087 42.631-42.631 42.631v0zM790.712 162.073l195.549 195.508c23.064 23.176 37.322 55.133 37.322 90.421s-14.258 67.245-37.328 90.426l-195.544 195.5c-7.658 7.402-18.102 11.963-29.612 11.963-23.545 0-42.631-19.087-42.631-42.631 0-11.51 4.561-21.954 11.974-29.624l182.96-183.003h-657.2c-23.545 0-42.631-19.087-42.631-42.631s19.087-42.631 42.631-42.631h657.244l-183.015-183.015c-8.072-7.769-13.086-18.665-13.086-30.733 0-23.544 19.086-42.631 42.631-42.631 11.545 0 22.019 4.59 29.696 12.044l-0.010-0.010z" />
<glyph unicode="&#xe931;" glyph-name="map-marker" d="M512 703.767c-94.178 0-170.525-76.346-170.525-170.525s76.346-170.525 170.525-170.525c94.178 0 170.525 76.346 170.525 170.525v0c0 94.178-76.346 170.525-170.525 170.525v0zM512 447.98c-47.089 0-85.262 38.173-85.262 85.262s38.173 85.262 85.262 85.262c47.089 0 85.262-38.173 85.262-85.262v0c0-47.089-38.173-85.262-85.262-85.262v0zM512-63.593c-0.342-0.002-0.746-0.003-1.15-0.003-74.966 0-141.358 36.71-182.18 93.135l-0.452 0.657c-162.467 224.112-244.873 392.59-244.873 500.787 0 236.74 191.916 428.656 428.656 428.656s428.656-191.916 428.656-428.656v0c0-108.198-82.406-276.676-244.873-500.787-41.274-57.081-107.666-93.792-182.633-93.792-0.404 0-0.809 0.001-1.213 0.003h0.062zM512 866.575c-185.301-0.218-335.459-150.376-335.677-335.656v-0.021c0-85.689 80.7-244.149 227.181-446.178 24.657-33.68 64.051-55.306 108.496-55.306s83.839 21.626 108.233 54.929l0.263 0.377c146.48 202.029 227.181 360.489 227.181 446.178-0.218 185.301-150.376 335.459-335.656 335.677h-0.021z" />
<glyph unicode="&#xe932;" glyph-name="moon" d="M999.795 377.487c-2.445 0.593-5.253 0.933-8.14 0.933-8.304 0-15.952-2.813-22.041-7.537l0.082 0.061c-33.070-28.298-71.684-51.335-113.822-67.176l-2.646-0.873c-38.298-14.922-82.632-23.57-128.985-23.57-1.121 0-2.24 0.005-3.358 0.015l0.171-0.001c-0.146 0-0.32 0-0.493 0-212.213 0-384.245 172.032-384.245 384.245 0 0.174 0 0.347 0 0.521v-0.027c0.155 45.464 7.808 89.089 21.785 129.774l-0.847-2.837c14.801 43.267 36.164 80.664 63.267 113.099l-0.452-0.557c4.603 5.678 7.39 12.991 7.39 20.956 0 10.564-4.903 19.982-12.558 26.104l-0.067 0.051c-6.008 4.663-13.655 7.476-21.958 7.476-2.887 0-5.695-0.34-8.385-0.982l0.245 0.049c-113.272-31.834-208.365-97.235-276.548-184.651l-0.882-1.175c-66.858-86.373-107.172-196.237-107.172-315.516 0-286.099 231.929-518.029 518.029-518.029 243.428 0 447.639 167.904 503.14 394.219l0.736 3.552c1.408 3.417 2.226 7.384 2.226 11.542 0 14.816-10.381 27.207-24.266 30.296l-0.207 0.039zM799.574 103.983c-75.844-60.072-172.908-96.368-278.448-96.368-248.515 0-450.026 201.244-450.459 449.658v0.042c-0.004 0.656-0.006 1.431-0.006 2.207 0 102.68 34.971 197.191 93.653 272.274l-0.735-0.977c40.264 52.012 90.474 94.276 148.020 124.448l2.472 1.181c-5.738-11.581-11.923-26.275-17.332-41.339l-0.989-3.154c-15.765-43.205-24.883-93.084-24.883-145.093 0-1.438 0.007-2.875 0.021-4.31l-0.002 0.219c0-0.064 0-0.139 0-0.215 0-249.226 202.037-451.263 451.263-451.263 0.076 0 0.151 0 0.227 0h-0.012c0.884-0.006 1.931-0.010 2.978-0.010 54.858 0 107.362 10.083 155.758 28.497l-3.008-1.005c17.012 6.543 34.024 13.086 49.728 20.938-32.256-61.831-75.356-113.711-127.271-154.979l-0.975-0.749z" />
<glyph unicode="&#xe933;" glyph-name="not-allowed" d="M512 959.574c-282.534 0-511.574-229.039-511.574-511.574s229.039-511.574 511.574-511.574c282.534 0 511.574 229.039 511.574 511.574v0c0 282.534-229.039 511.574-511.574 511.574v0zM512 874.311c0.101 0 0.221 0 0.341 0 102.568 0 196.633-36.408 269.975-97.005l-0.717 0.575-599.481-599.481c-60.042 72.86-96.451 167.148-96.451 269.94 0 235.257 190.713 425.97 425.97 425.97 0.127 0 0.255 0 0.382 0h-0.019zM512 21.689c-0.101 0-0.221 0-0.341 0-102.568 0-196.633 36.408-269.975 97.005l0.717-0.575 599.481 599.481c60.042-72.86 96.451-167.148 96.451-269.94 0-235.257-190.713-425.97-425.97-425.97-0.127 0-0.255 0-0.382 0h0.019z" />
<glyph unicode="&#xe934;" glyph-name="plane" d="M1023.926 925.044c-0.809 11.736-6.758 21.936-15.59 28.455l-0.106 0.074c-1.643 0.775-3.598 1.492-5.622 2.040l-0.257 0.059c-2.592 1.348-5.6 2.457-8.757 3.172l-0.255 0.049c-1.991 0.539-4.318 0.922-6.708 1.070l-0.101 0.005c-0.389 0.014-0.846 0.022-1.306 0.022-7.339 0-14.195-2.065-20.020-5.647l0.166 0.095-944.977-498.469c-12.253-6.69-20.426-19.483-20.426-34.185 0-16.804 10.677-31.114 25.617-36.517l0.27-0.085 315.069-108.805c-0.124-1.275-0.701-2.429-0.704-3.73v-297.119c0-0.058 0-0.127 0-0.197 0-17.368 11.269-32.104 26.894-37.295l0.277-0.080c3.612-1.241 7.773-1.957 12.102-1.957v0c12.915 0.038 24.359 6.302 31.492 15.947l0.075 0.107 171.3 232.902c1.074 2.012 2.031 4.358 2.744 6.809l0.066 0.265 273.148-94.328c3.607-1.245 7.764-1.978 12.089-2.010h0.066c7.212 0.010 13.943 2.061 19.648 5.606l-0.159-0.092c9.567 5.913 16.269 15.68 17.957 27.080l0.025 0.209 115.945 787.893c0.038 0.633 0.059 1.373 0.059 2.118 0 0.641-0.016 1.278-0.047 1.911l0.004-0.089c0.051 0.751 0.080 1.628 0.080 2.512 0 0.775-0.022 1.546-0.067 2.31l0.005-0.106zM418.745 249.505l90.3-31.187-90.3-122.727zM799.334 779.94l-409.939-438.907-255.031 88.086zM930.799 805.033l-91.15-619.511-368.543 127.29z" />
<glyph unicode="&#xe935;" glyph-name="plus-circle" d="M512 959.574c-282.534 0-511.574-229.039-511.574-511.574s229.039-511.574 511.574-511.574c282.534 0 511.574 229.039 511.574 511.574v0c0 282.534-229.039 511.574-511.574 511.574v0zM512 21.689c-235.445 0-426.311 190.866-426.311 426.311s190.866 426.311 426.311 426.311c235.445 0 426.311-190.866 426.311-426.311v0c0-235.445-190.866-426.311-426.311-426.311v0zM752.794 448c-0.004 23.539-19.085 42.621-42.624 42.625h-155.909v155.909c-0.439 23.206-19.354 41.849-42.624 41.849s-42.185-18.644-42.623-41.808l-0.001-0.041v-155.909h-155.91c-23.206-0.439-41.849-19.354-41.849-42.624s18.644-42.185 41.808-42.623l0.041-0.001h155.909v-155.909c0.439-23.206 19.354-41.849 42.624-41.849s42.185 18.644 42.623 41.808l0.001 0.041v155.909h155.909c23.54 0.003 42.622 19.084 42.626 42.623v0z" />
<glyph unicode="&#xe936;" glyph-name="price-tag" d="M1003.687 616.819l-209.572 323.819c-7.679 11.723-20.753 19.36-35.61 19.36-0.258 0-0.516-0.002-0.774-0.007l0.039 0.001-386.534-6.349c-47.432-0.77-88.476-27.379-109.745-66.334l-0.332-0.665-236.196-440.682c-15.68-28.797-24.9-63.067-24.9-99.49 0-80.326 44.84-150.179 110.855-185.894l1.117-0.553 373.921-199.142c28.89-15.659 63.25-24.863 99.76-24.863 80.43 0 150.426 44.669 186.534 110.553l0.555 1.106 236.196 440.681c9.444 17.281 14.998 37.856 14.998 59.729 0 25.548-7.578 49.327-20.608 69.211l0.296-0.481zM698.023 87.507c-21.95-40.22-63.937-67.050-112.191-67.050-21.934 0-42.574 5.544-60.593 15.306l0.673-0.333-373.922 199.141c-40.305 21.713-67.237 63.614-67.237 111.805 0 21.881 5.552 42.466 15.325 60.422l-0.331-0.664 236.196 440.681c7.19 13.271 20.915 22.188 36.744 22.432h0.034l362.906 5.85 196.891-303.985c4.24-6.465 6.762-14.386 6.762-22.897 0-7.338-1.875-14.238-5.173-20.247l0.11 0.219zM702.208 694.099c0-35.009-28.471-63.389-63.591-63.389s-63.591 28.38-63.591 63.389c0 35.009 28.471 63.389 63.591 63.389s63.591-28.38 63.591-63.389z" />
<glyph unicode="&#xe937;" glyph-name="probe-signal" d="M874.038 810.039c-92.634 92.694-220.639 150.030-362.036 150.030-282.674 0-511.827-229.153-511.827-511.827 0-122.099 42.754-234.212 114.108-322.186l-0.748 0.952c7.591-9.67 19.281-15.824 32.408-15.824 11.197 0 21.349 4.478 28.761 11.74l4.112 4.112c7.187 7.423 11.617 17.554 11.617 28.719 0 10.227-3.717 19.586-9.873 26.8l0.048-0.057c-58.181 72.076-93.394 164.8-93.394 265.749 0 234.602 190.183 424.785 424.785 424.785s424.785-190.183 424.785-424.785c0-100.948-35.213-193.671-94.025-266.557l0.633 0.811c-6.109-7.156-9.826-16.516-9.826-26.743 0-11.166 4.43-21.296 11.629-28.73l4.105-4.108c7.406-7.256 17.557-11.734 28.754-11.734 13.127 0 24.817 6.154 32.341 15.735l0.067 0.089c70.62 87.018 113.384 199.135 113.384 321.24 0 141.278-57.248 269.185-149.811 361.789l0.002-0.002zM512 751.314c-0.070 0-0.152 0-0.234 0-167.202 0-302.746-135.544-302.746-302.746 0-63.526 19.566-122.482 53-171.171l-0.667 1.028c7.502-10.873 19.892-17.908 33.926-17.908 11.291 0 21.519 4.554 28.945 11.926l4.003 4.003c7.386 7.206 11.967 17.258 11.967 28.379 0 8.155-2.463 15.735-6.686 22.036l0.090-0.143c-23.377 34.004-37.336 76.067-37.336 121.39 0 119.297 96.709 216.006 216.006 216.006s216.006-96.709 216.006-216.006c0-0.039 0-0.077 0-0.116v0.006c0-0.028 0-0.062 0-0.095 0-45.331-14.173-87.352-38.33-121.872l0.455 0.687c-4.131-6.158-6.593-13.736-6.593-21.89 0-11.123 4.582-21.176 11.96-28.375l4.011-4.014c7.425-7.369 17.652-11.923 28.943-11.923 14.033 0 26.423 7.034 33.836 17.769l0.090 0.137c32.768 47.661 52.334 106.617 52.334 170.143 0 167.202-135.544 302.746-302.746 302.746-0.083 0-0.166 0-0.249 0h0.013zM512 535.698c-0.079 0-0.173 0-0.268 0-48.285 0-87.429-39.143-87.429-87.429 0-32.372 17.594-60.634 43.74-75.747l0.421-0.225v-392.772c0-24.038 19.487-43.525 43.525-43.525s43.525 19.487 43.525 43.525v0 392.762c26.579 15.335 44.181 43.603 44.181 75.982 0 48.285-39.143 87.428-87.428 87.428-0.095 0-0.189 0-0.284 0h0.015z" />
<glyph unicode="&#xe938;" glyph-name="question-circle" d="M512 959.574c-282.534 0-511.574-229.039-511.574-511.574s229.039-511.574 511.574-511.574c282.534 0 511.574 229.039 511.574 511.574v0c0 282.534-229.039 511.574-511.574 511.574v0zM512 21.689c-235.445 0-426.311 190.866-426.311 426.311s190.866 426.311 426.311 426.311c235.445 0 426.311-190.866 426.311-426.311v0c0-235.445-190.866-426.311-426.311-426.311v0zM542.566 743.731c-9.19 1.757-19.76 2.762-30.565 2.762-94.179 0-170.526-76.347-170.526-170.526 0-0.026 0-0.052 0-0.078v0.004c0-23.545 19.087-42.631 42.631-42.631s42.631 19.087 42.631 42.631v0c0 0.021 0 0.047 0 0.072 0 47.089 38.173 85.263 85.263 85.263 5.593 0 11.060-0.539 16.353-1.567l-0.537 0.087c34.483-6.869 61.233-33.548 68.116-67.442l0.094-0.554c0.952-4.783 1.497-10.282 1.497-15.908 0-31.997-17.625-59.877-43.697-74.462l-0.431-0.222c-50.617-29.716-84.063-83.879-84.063-145.854 0-1.24 0.013-2.476 0.040-3.71l-0.003 0.184v-31.675c0-23.545 19.087-42.631 42.631-42.631s42.631 19.087 42.631 42.631v0 31.675c-0.035 0.908-0.055 1.974-0.055 3.045 0 30.066 15.703 56.464 39.355 71.44l0.346 0.205c53.104 29.586 88.432 85.399 88.432 149.464 0 83.439-59.928 152.882-139.091 167.633l-1.054 0.163zM512 234.844v0c23.545 0 42.631-19.087 42.631-42.631v0c0-23.544-19.087-42.631-42.631-42.631v0c-23.544 0-42.631 19.086-42.631 42.631v0c0 23.545 19.087 42.631 42.631 42.631v0z" />
<glyph unicode="&#xe939;" glyph-name="radar" d="M560.802 958.747c-1.426 0.164-3.079 0.257-4.754 0.257-24.188 0-43.823-19.49-44.058-43.622v-0.028c-0.002-0.151-0.003-0.329-0.003-0.507 0-21.998 16.597-40.119 37.952-42.525l0.195-0.018c217.842-20.138 387.085-202 387.085-423.392 0-234.773-190.321-425.095-425.095-425.095s-425.095 190.321-425.095 425.095c0 0.045 0 0.091 0 0.136v-0.007c0.19 64.738 15.035 125.963 41.39 180.593l-1.090-2.505 105.144-61.204c-15.021-34.485-23.773-74.657-23.8-116.871v-0.011c0-0.033 0-0.073 0-0.113 0-167.591 135.859-303.45 303.45-303.45s303.45 135.859 303.45 303.45c0 150.047-108.904 274.659-251.982 299.103l-1.796 0.254c-1.891 0.291-4.071 0.457-6.291 0.457-24.033 0-43.515-19.483-43.515-43.515 0-0.090 0-0.181 0.001-0.271v0.014-0.175c0.026-21.32 15.52-39.014 35.861-42.464l0.254-0.036c103.016-17.864 180.364-106.579 180.364-213.359 0-119.502-96.875-216.377-216.377-216.377s-216.377 96.875-216.377 216.377c0 0.036 0 0.072 0 0.108v-0.006c0.18 25.997 5.118 50.788 13.986 73.618l-0.483-1.413 115.572-67.277c-0.094-1.666-0.497-3.241-0.497-4.929 0.001-48.433 39.264-87.695 87.697-87.695s87.697 39.263 87.697 87.697c0 48.434-39.263 87.697-87.697 87.697v0c-14.464-0.097-28.061-3.719-40.002-10.049l0.471 0.228-378.653 220.425-21.962-37.706-20.497-38.275c-31.959-64.883-50.653-141.24-50.653-221.963 0-282.576 229.073-511.649 511.649-511.649s511.649 229.073 511.649 511.649c0 265.512-202.242 483.787-461.080 509.181l-2.108 0.167z" />
<glyph unicode="&#xe93a;" glyph-name="search" d="M1012.034 8.247l-254.464 254.464c60.034 72.985 96.433 167.384 96.433 270.284 0 235.823-191.172 426.995-426.995 426.995s-426.995-191.172-426.995-426.995c0-235.823 191.172-426.995 426.995-426.995 102.899 0 197.297 36.398 271.022 97.021l-0.74-0.591 254.464-254.464c7.658-7.402 18.102-11.963 29.612-11.963 23.545 0 42.631 19.087 42.631 42.631 0 11.51-4.561 21.954-11.974 29.624l0.012-0.012zM427.688 191.262c-188.356 0-341.049 152.693-341.049 341.049s152.693 341.049 341.049 341.049c188.356 0 341.049-152.693 341.049-341.049v0c0-188.356-152.693-341.049-341.049-341.049v0z" />
<glyph unicode="&#xe93b;" glyph-name="sensor" d="M745.798 947.866c-7.496 7.496-17.851 12.132-29.289 12.132-22.876 0-41.421-18.545-41.421-41.421 0-11.438 4.636-21.793 12.132-29.289v0c112.861-112.97 182.659-268.979 182.659-441.29s-69.798-328.319-182.663-441.294l0.005 0.005c-7.496-7.496-12.132-17.851-12.132-29.289 0-22.876 18.545-41.421 41.421-41.421 11.438 0 21.793 4.636 29.289 12.132v0c127.852 127.962 206.923 304.681 206.923 499.868s-79.071 371.906-206.928 499.873l0.005-0.005zM620.375 822.447c-7.488 7.451-17.813 12.057-29.214 12.057-22.876 0-41.421-18.545-41.421-41.421 0-11.401 4.606-21.725 12.058-29.215l-0.002 0.002c80.787-80.861 130.75-192.531 130.75-315.869s-49.963-235.008-130.753-315.873l0.003 0.003c-7.496-7.496-12.132-17.851-12.132-29.289 0-22.876 18.545-41.421 41.421-41.421 11.438 0 21.793 4.636 29.289 12.132v0c95.779 95.852 155.014 228.232 155.014 374.447s-59.235 278.595-155.018 374.451l0.003-0.003zM494.86 696.934c-7.488 7.451-17.813 12.057-29.214 12.057-22.876 0-41.421-18.545-41.421-41.421 0-11.401 4.606-21.725 12.058-29.215l-0.002 0.002c48.684-48.731 78.792-116.027 78.792-190.355s-30.108-141.624-78.794-190.358l0.002 0.002c-7.496-7.496-12.132-17.851-12.132-29.289 0-22.876 18.545-41.421 41.421-41.421 11.438 0 21.793 4.636 29.289 12.132v0c63.675 63.722 103.056 151.729 103.056 248.933s-39.381 185.211-103.058 248.935l0.002-0.002zM245.8 622.521c-96.385 0-174.521-78.136-174.521-174.521s78.136-174.521 174.521-174.521c96.385 0 174.521 78.136 174.521 174.521v0c-0.112 96.34-78.181 174.409-174.511 174.521h-0.011zM245.8 356.321c-50.633 0-91.679 41.046-91.679 91.679s41.046 91.679 91.679 91.679c50.633 0 91.679-41.046 91.679-91.679v0c-0.059-50.609-41.070-91.62-91.673-91.679h-0.006z" />
<glyph unicode="&#xe93c;" glyph-name="server" d="M592.927 53.605c0-44.695-36.232-80.927-80.927-80.927s-80.927 36.232-80.927 80.927c0 44.695 36.232 80.927 80.927 80.927s80.927-36.232 80.927-80.927zM875.788 932.624h-727.575c-81.856-0.001-148.213-66.359-148.213-148.215 0 0 0-0.001 0-0.001v0-94.233c0-0.001 0-0.002 0-0.003 0-81.855 66.357-148.212 148.212-148.212 0 0 0.001 0 0.001 0h727.575c0 0 0 0 0.001 0 81.855 0 148.212 66.357 148.212 148.212 0 0.001 0 0.002 0 0.003v0 94.233c0 0 0 0.001 0 0.002 0 81.856-66.357 148.213-148.212 148.214v0zM936.96 690.176c-0.039-33.769-27.403-61.133-61.168-61.172h-727.579c-33.769 0.038-61.134 27.403-61.173 61.168v94.237c0.038 33.77 27.403 61.136 61.169 61.175h727.579c33.77-0.040 61.134-27.406 61.172-61.172v-0.004zM468.941 780.818h-267.8c-0.044 0-0.097 0-0.149 0-24.038 0-43.525-19.487-43.525-43.525s19.487-43.525 43.525-43.525c0.052 0 0.105 0 0.157 0h267.792c0.044 0 0.097 0 0.149 0 24.038 0 43.525 19.487 43.525 43.525s-19.487 43.525-43.525 43.525c-0.052 0-0.105 0-0.157 0h0.008zM673.853 741.334c0-28.277-22.923-51.2-51.2-51.2s-51.2 22.923-51.2 51.2c0 28.277 22.923 51.2 51.2 51.2s51.2-22.923 51.2-51.2zM822.85 741.334c0-28.277-22.923-51.2-51.2-51.2s-51.2 22.923-51.2 51.2c0 28.277 22.923 51.2 51.2 51.2s51.2-22.923 51.2-51.2zM468.941 342.893h-267.8c-0.044 0-0.097 0-0.149 0-24.038 0-43.525-19.487-43.525-43.525s19.487-43.525 43.525-43.525c0.052 0 0.105 0 0.157 0h267.792c0.044 0 0.097 0 0.149 0 24.038 0 43.525 19.487 43.525 43.525s-19.487 43.525-43.525 43.525c-0.052 0-0.105 0-0.157 0h0.008zM673.853 303.402c0-28.277-22.923-51.2-51.2-51.2s-51.2 22.923-51.2 51.2c0 28.277 22.923 51.2 51.2 51.2s51.2-22.923 51.2-51.2zM822.85 303.402c0-28.277-22.923-51.2-51.2-51.2s-51.2 22.923-51.2 51.2c0 28.277 22.923 51.2 51.2 51.2s51.2-22.923 51.2-51.2zM875.788 494.694h-727.575c-81.856-0.001-148.213-66.359-148.213-148.215 0-0.001 0-0.001 0-0.002v0-94.235c0 0 0 0 0-0.001 0-81.855 66.357-148.212 148.212-148.212 0 0 0.001 0 0.001 0h250.228c-6.883-14.505-10.903-31.516-10.903-49.466 0-12.246 1.871-24.054 5.342-35.156l-0.225 0.834h-355.89c-23.974-0.085-43.376-19.539-43.376-43.525s19.402-43.44 43.368-43.525h445.302c8.973-2.571 19.28-4.050 29.931-4.050s20.958 1.479 30.725 4.242l-0.794-0.192h438.243c0.044 0 0.097 0 0.149 0 24.038 0 43.525 19.487 43.525 43.525s-19.487 43.525-43.525 43.525c-0.052 0-0.105 0-0.157 0h-348.829c3.247 10.268 5.118 22.077 5.118 34.323 0 17.95-4.019 34.96-11.207 50.182l0.304-0.716h250.247c81.855 0 148.211 66.357 148.211 148.211 0 0 0 0.001 0 0.001v0 94.235c0 0.001 0 0.002 0 0.003 0 81.856-66.357 148.213-148.212 148.214v0zM528.175 20.244h-32.369c-12.654 6.176-21.218 18.947-21.218 33.719 0 20.657 16.745 37.402 37.402 37.402s37.402-16.745 37.402-37.402c0-14.772-8.563-27.544-20.997-33.622l-0.221-0.098zM936.96 252.243c-0.039-33.769-27.403-61.133-61.168-61.172h-727.579c-33.769 0.038-61.134 27.403-61.173 61.168v94.239c0.037 33.771 27.402 61.137 61.169 61.177h727.579c33.77-0.040 61.135-27.406 61.172-61.173v-0.004z" />
<glyph unicode="&#xe93d;" glyph-name="shield-alert" d="M512 320.091c-23.545 0-42.631 19.087-42.631 42.631v0 341.049c0 23.545 19.087 42.631 42.631 42.631s42.631-19.087 42.631-42.631v0-341.049c0-23.545-19.087-42.631-42.631-42.631v0zM545.806-53.358c92.083 37.004 392.505 182.504 392.505 499.507v220.447c0 0.067 0 0.146 0 0.225 0 93.666-60.5 173.202-144.554 201.662l-1.5 0.441-266.828 88.459c-4.005 1.398-8.623 2.205-13.429 2.205s-9.423-0.807-13.724-2.294l0.295 0.089-266.828-88.459c-85.554-28.901-146.054-108.437-146.054-202.103 0-0.079 0-0.158 0-0.237v0.012-220.446c0-279.745 298.631-450.867 390.202-496.652 10.227-5.027 22.239-9.502 34.735-12.783l1.374-0.306c12.954 2.682 24.265 6.211 35.077 10.7l-1.271-0.468zM765.4 788.012c51.349-17.396 87.649-65.157 87.649-121.396 0-0.006 0-0.012 0-0.018v0.001-220.446c0-263.588-259.495-388.412-339.046-420.385v0c-80.486 40.243-343.052 189.495-343.052 420.385v220.444c0 0.005 0 0.011 0 0.017 0 56.24 36.3 104.001 86.748 121.131l0.901 0.266 253.401 83.983zM512 234.829c-23.545 0-42.631-19.087-42.631-42.631s19.087-42.631 42.631-42.631c23.545 0 42.631 19.087 42.631 42.631v0c0 23.545-19.087 42.631-42.631 42.631v0z" />
<glyph unicode="&#xe93e;" glyph-name="shield-bolt" d="M545.806-53.358c92.083 37.004 392.505 182.504 392.505 499.507v220.447c0 0.067 0 0.146 0 0.225 0 93.666-60.5 173.202-144.554 201.662l-1.5 0.441-266.828 88.459c-4.005 1.398-8.623 2.205-13.429 2.205s-9.423-0.807-13.724-2.294l0.295 0.089-266.828-88.459c-85.554-28.901-146.054-108.437-146.054-202.103 0-0.079 0-0.158 0-0.237v0.012-220.446c0-279.745 298.631-450.867 390.202-496.652 10.227-5.027 22.239-9.502 34.735-12.783l1.374-0.306c12.954 2.682 24.265 6.211 35.077 10.7l-1.271-0.468zM765.4 788.012c51.349-17.396 87.649-65.157 87.649-121.396 0-0.006 0-0.012 0-0.018v0.001-220.446c0-263.588-259.495-388.412-339.046-420.385v0c-80.486 40.243-343.052 189.495-343.052 420.385v220.444c0 0.005 0 0.011 0 0.017 0 56.24 36.3 104.001 86.748 121.131l0.901 0.266 253.401 83.983zM527.11 423.348l-26.317-27.955q-36.813-39.478-73.882-78.746c-0.848-0.646-1.922-1.035-3.087-1.035-0.735 0-1.434 0.155-2.066 0.434l0.033-0.013c-8.806 4.559-17.408 9.472-26.112 14.285l-14.336 7.885 7.224-105.706c1.882-26.735 24.032-47.71 51.081-47.71 7.424 0 14.479 1.58 20.846 4.422l-0.325-0.13 107.026 46.823-59.75 32.922 119.372 114.045c9.762 9.339 15.831 22.471 15.831 37.020 0 19.215-10.585 35.959-26.243 44.716l-0.259 0.133-97.587 53.737 94.852 98.77c9.58 9.964 15.479 23.527 15.479 38.467 0 20.848-11.488 39.013-28.478 48.511l-0.281 0.144-0.004 0.003c-7.725 4.331-16.953 6.882-26.777 6.882-15.967 0-30.359-6.738-40.49-17.525l-0.027-0.029-124.064-132.34c-8.577-9.133-13.846-21.459-13.846-35.016 0-19.223 10.594-35.972 26.262-44.727l0.259-0.133z" />
<glyph unicode="&#xe93f;" glyph-name="shield-check" d="M792.55 868.359l-267.059 89.037c-4.018 1.388-8.648 2.19-13.466 2.19s-9.448-0.802-13.765-2.279l0.299 0.089-267.11-89.037c-85.408-29.015-145.766-108.492-145.766-202.068 0-0.043 0-0.085 0-0.128v0.007-218.163c0-322.56 392.243-500.48 409.037-507.904 5.089-2.33 11.038-3.688 17.306-3.688s12.217 1.358 17.571 3.797l-0.266-0.108c16.794 7.424 408.986 185.498 408.986 507.904v218.163c0 0.058 0 0.126 0 0.195 0 93.556-60.363 173.014-144.268 201.551l-1.499 0.443zM853.069 448.007c0-232.55-269.414-385.075-341.043-421.581-71.68 36.352-341.043 188.416-341.043 421.581v218.163c0.052 56.139 36.236 103.813 86.549 121.025l0.901 0.268 253.594 84.531 253.542-84.531c51.235-17.462 87.441-65.142 87.501-121.286v-0.007zM652.672 605.754l-178.534-179.2-95.642 99.738c-7.772 8.073-18.671 13.087-30.742 13.087-23.555 0-42.65-19.095-42.65-42.65 0-10.733 3.965-20.54 10.51-28.037l-0.043 0.050 1.485-1.536 98.304-102.4c14.349-15.474 34.672-25.236 57.278-25.599l0.066-0.001h1.382c0.067 0 0.147 0 0.226 0 22.167 0 42.226 9.024 56.704 23.599l0.004 0.004 182.118 182.477c7.37 7.677 11.908 18.12 11.908 29.624 0 23.64-19.164 42.803-42.803 42.803-11.478 0-21.901-4.518-29.588-11.873l0.016 0.015z" />
<glyph unicode="&#xe940;" glyph-name="sort-asc" d="M452.266 704h529.067c23.501 0.084 42.519 19.154 42.519 42.667s-19.018 42.583-42.511 42.667h-529.075c-23.501-0.084-42.519-19.154-42.519-42.667s19.018-42.583 42.511-42.667h0.008zM827.734 490.666h-375.467c-23.564 0-42.666-19.102-42.666-42.666s19.102-42.666 42.666-42.666h375.467c23.564 0 42.666 19.102 42.666 42.666s-19.102 42.666-42.666 42.666v0zM622.934 192h-170.667c-23.501-0.084-42.519-19.154-42.519-42.667s19.018-42.583 42.511-42.667h170.675c23.501 0.084 42.519 19.154 42.519 42.667s-19.018 42.583-42.511 42.667h-0.008zM11.581 627.083c6.825-6.623 16.147-10.706 26.422-10.706 10.389 0 19.803 4.174 26.657 10.936l47.946 47.919v-530.565c0.079-20.934 17.068-37.873 38.013-37.873s37.933 16.94 38.013 37.866v530.6l47.725-47.725c6.915-7.125 16.582-11.546 27.28-11.546 20.988 0 38.002 17.014 38.002 38.002 0 10.557-4.304 20.108-11.254 26.994l-0.003 0.003-13.622-13.522 13.572 13.572-86.275 86.299c-13.712 13.598-32.593 22-53.437 22-20.857 0-39.749-8.413-53.467-22.030l-86.445-86.471c-6.623-6.831-10.705-16.158-10.705-26.438 0-10.715 4.435-20.395 11.57-27.302l0.010-0.010z" />
<glyph unicode="&#xe941;" glyph-name="sort-desc" d="M452.266 704h529.067c23.501 0.084 42.519 19.154 42.519 42.667s-19.018 42.583-42.511 42.667h-529.075c-23.501-0.084-42.519-19.154-42.519-42.667s19.018-42.583 42.511-42.667h0.008zM827.734 490.666h-375.467c-23.564 0-42.666-19.102-42.666-42.666s19.102-42.666 42.666-42.666h375.467c23.564 0 42.666 19.102 42.666 42.666s-19.102 42.666-42.666 42.666v0zM622.934 192h-170.667c-23.501-0.084-42.519-19.154-42.519-42.667s19.018-42.583 42.511-42.667h170.675c23.501 0.084 42.519 19.154 42.519 42.667s-19.018 42.583-42.511 42.667h-0.008zM290.008 268.917c-6.825 6.623-16.147 10.706-26.422 10.706-10.389 0-19.803-4.174-26.657-10.936l-47.946-47.919v530.565c0 20.994-17.019 38.012-38.012 38.012s-38.012-17.019-38.012-38.012v0-530.592l-47.725 47.725c-6.92 7.16-16.61 11.605-27.338 11.605-20.988 0-38.002-17.014-38.002-38.002 0-10.585 4.328-20.159 11.31-27.049l0.004-0.004 13.624 13.522-13.572-13.572 86.273-86.301c13.712-13.598 32.593-22 53.437-22 20.857 0 39.749 8.413 53.467 22.030l86.445 86.472c6.623 6.831 10.705 16.158 10.705 26.438 0 10.715-4.435 20.395-11.57 27.302l-0.010 0.010z" />
<glyph unicode="&#xe942;" glyph-name="spinner" d="M554.666 917.334v-85.334c0-23.564-19.102-42.666-42.666-42.666s-42.666 19.102-42.666 42.666v0 85.334c0 23.564 19.102 42.666 42.666 42.666s42.666-19.102 42.666-42.666v0zM512 106.666c0 0 0 0-0.001 0-23.564 0-42.666-19.102-42.666-42.666 0 0 0 0 0-0.001v0-85.334c0-23.564 19.102-42.666 42.666-42.666s42.666 19.102 42.666 42.666v0 85.334c0 0 0 0 0 0.001 0 23.564-19.102 42.666-42.666 42.666 0 0 0 0-0.001 0v0zM170.666 448c0 0 0 0 0 0.001 0 23.564-19.102 42.666-42.666 42.666 0 0 0 0-0.001 0h-85.333c-23.564 0-42.666-19.102-42.666-42.666s19.102-42.666 42.666-42.666h85.334c0 0 0 0 0.001 0 23.564 0 42.666 19.102 42.666 42.666 0 0 0 0 0 0.001v0zM981.334 490.666h-85.334c-23.564 0-42.666-19.102-42.666-42.666s19.102-42.666 42.666-42.666h85.334c23.564 0 42.666 19.102 42.666 42.666s-19.102 42.666-42.666 42.666v0zM768.768 890.966c-6.136 3.618-13.519 5.756-21.402 5.756-15.682 0-29.387-8.46-36.802-21.065l-0.109-0.2-0.013-0.022-42.666-73.856c-3.6-6.124-5.727-13.489-5.727-21.352 0-15.696 8.476-29.412 21.1-36.822l0.201-0.109c6.088-3.62 13.424-5.76 21.259-5.76 0.026 0 0.052 0 0.079 0h-0.004c15.709 0 29.435 8.49 36.841 21.132l0.109 0.201 42.666 73.856c3.595 6.121 5.719 13.481 5.719 21.338 0 15.675-8.453 29.376-21.050 36.793l-0.2 0.109zM340.778 152.704c-6.128 3.607-13.5 5.737-21.37 5.737-15.683 0-29.389-8.461-36.804-21.068l-0.109-0.2-42.666-73.856c-3.607-6.128-5.738-13.501-5.738-21.37 0-15.683 8.461-29.39 21.068-36.804l0.2-0.109c6.097-3.62 13.44-5.76 21.284-5.76 0.017 0 0.035 0 0.052 0h-0.003c0.012 0 0.026 0 0.041 0 15.71 0 29.437 8.49 36.842 21.132l0.109 0.201 42.666 73.856c3.589 6.116 5.708 13.47 5.708 21.319 0 15.688-8.467 29.399-21.081 36.812l-0.2 0.109zM201.174 677.504l-73.856 42.666c-5.846 3.206-12.809 5.091-20.212 5.091-23.564 0-42.667-19.103-42.667-42.667 0-15.25 8.001-28.631 20.034-36.176l0.178-0.104 73.856-42.666c5.846-3.206 12.809-5.091 20.212-5.091 23.564 0 42.667 19.103 42.667 42.667 0 15.25-8.001 28.631-20.034 36.176l-0.178 0.104zM939.306 249.558l-73.856 42.666c-5.848 3.209-12.815 5.097-20.223 5.097-23.564 0-42.666-19.102-42.666-42.666 0-15.254 8.005-28.639 20.044-36.182l0.178-0.104 73.856-42.666c6.088-3.62 13.424-5.76 21.259-5.76 0.026 0 0.052 0 0.078 0h-0.004c23.563 0.001 42.665 19.103 42.665 42.666 0 15.709-8.489 29.435-21.131 36.84l-0.201 0.109zM313.558 875.434c-7.647 12.217-21.032 20.223-36.286 20.223-23.564 0-42.666-19.102-42.666-42.666 0-7.408 1.888-14.374 5.208-20.445l-0.111 0.223 42.666-73.856c7.514-12.843 21.24-21.333 36.949-21.334v0c0.022 0 0.047 0 0.073 0 7.836 0 15.171 2.14 21.455 5.867l-0.195-0.107c12.825 7.519 21.3 21.235 21.3 36.931 0 7.862-2.127 15.228-5.836 21.553l0.109-0.201zM741.504 137.302c-7.649 12.211-21.030 20.212-36.28 20.212-23.564 0-42.667-19.103-42.667-42.667 0-7.403 1.886-14.366 5.203-20.435l-0.111 0.223 42.666-73.856c7.649-12.211 21.030-20.212 36.28-20.212 23.564 0 42.667 19.103 42.667 42.667 0 7.403-1.886 14.366-5.203 20.435l0.111-0.223zM844.246 598.102c7.855 0 15.213 2.123 21.534 5.826l-0.201-0.109 73.856 42.667c12.217 7.647 20.223 21.032 20.223 36.286 0 23.564-19.102 42.666-42.666 42.666-7.408 0-14.374-1.888-20.445-5.208l0.223 0.111-73.856-42.667c-12.801-7.524-21.258-21.228-21.258-36.907 0-23.538 19.060-42.624 42.587-42.666h0.004zM158.422 292.352l-73.856-42.666c-12.843-7.515-21.332-21.241-21.332-36.95 0-23.564 19.102-42.666 42.665-42.666v0c0.022 0 0.048 0 0.074 0 7.835 0 15.171 2.14 21.454 5.867l-0.195-0.107 73.856 42.666c12.217 7.647 20.223 21.032 20.223 36.286 0 23.564-19.102 42.666-42.666 42.666-7.408 0-14.374-1.888-20.445-5.208l0.223 0.111z" />
<glyph unicode="&#xe943;" glyph-name="sun" d="M554.666 917.334v-85.334c0-23.564-19.102-42.666-42.666-42.666s-42.666 19.102-42.666 42.666v0 85.334c0 23.564 19.102 42.666 42.666 42.666s42.666-19.102 42.666-42.666v0zM512 106.666c0 0 0 0-0.001 0-23.564 0-42.666-19.102-42.666-42.666 0 0 0 0 0-0.001v0-85.334c0-23.564 19.102-42.666 42.666-42.666s42.666 19.102 42.666 42.666v0 85.334c0 0 0 0 0 0.001 0 23.564-19.102 42.666-42.666 42.666 0 0 0 0-0.001 0v0zM170.666 448c0 0 0 0 0 0.001 0 23.564-19.102 42.666-42.666 42.666 0 0 0 0-0.001 0h-85.333c-23.564 0-42.666-19.102-42.666-42.666s19.102-42.666 42.666-42.666h85.334c0 0 0 0 0.001 0 23.564 0 42.666 19.102 42.666 42.666 0 0 0 0 0 0.001v0zM981.334 490.666h-85.334c-23.564 0-42.666-19.102-42.666-42.666s19.102-42.666 42.666-42.666h85.334c23.564 0 42.666 19.102 42.666 42.666s-19.102 42.666-42.666 42.666v0zM768.768 890.966c-6.136 3.618-13.519 5.756-21.402 5.756-15.682 0-29.387-8.46-36.802-21.065l-0.109-0.2-0.013-0.022-42.666-73.856c-3.6-6.124-5.727-13.489-5.727-21.352 0-15.696 8.476-29.412 21.1-36.822l0.201-0.109c6.088-3.62 13.424-5.76 21.259-5.76 0.026 0 0.052 0 0.079 0h-0.004c15.709 0 29.435 8.49 36.841 21.132l0.109 0.201 42.666 73.856c3.595 6.121 5.719 13.481 5.719 21.338 0 15.675-8.453 29.376-21.050 36.793l-0.2 0.109zM340.778 152.704c-6.128 3.607-13.5 5.737-21.37 5.737-15.683 0-29.389-8.461-36.804-21.068l-0.109-0.2-42.666-73.856c-3.607-6.128-5.738-13.501-5.738-21.37 0-15.683 8.461-29.39 21.068-36.804l0.2-0.109c6.097-3.62 13.44-5.76 21.284-5.76 0.017 0 0.035 0 0.052 0h-0.003c0.012 0 0.026 0 0.041 0 15.71 0 29.437 8.49 36.842 21.132l0.109 0.201 42.666 73.856c3.589 6.116 5.708 13.47 5.708 21.319 0 15.688-8.467 29.399-21.081 36.812l-0.2 0.109zM201.174 677.504l-73.856 42.666c-5.846 3.206-12.809 5.091-20.212 5.091-23.564 0-42.667-19.103-42.667-42.667 0-15.25 8.001-28.631 20.034-36.176l0.178-0.104 73.856-42.666c5.846-3.206 12.809-5.091 20.212-5.091 23.564 0 42.667 19.103 42.667 42.667 0 15.25-8.001 28.631-20.034 36.176l-0.178 0.104zM939.306 249.558l-73.856 42.666c-5.848 3.209-12.815 5.097-20.223 5.097-23.564 0-42.666-19.102-42.666-42.666 0-15.254 8.005-28.639 20.044-36.182l0.178-0.104 73.856-42.666c6.088-3.62 13.424-5.76 21.259-5.76 0.026 0 0.052 0 0.078 0h-0.004c23.563 0.001 42.665 19.103 42.665 42.666 0 15.709-8.489 29.435-21.131 36.84l-0.201 0.109zM313.558 875.434c-7.647 12.217-21.032 20.223-36.286 20.223-23.564 0-42.666-19.102-42.666-42.666 0-7.408 1.888-14.374 5.208-20.445l-0.111 0.223 42.666-73.856c7.514-12.843 21.24-21.333 36.949-21.334v0c0.022 0 0.047 0 0.073 0 7.836 0 15.171 2.14 21.455 5.867l-0.195-0.107c12.825 7.519 21.3 21.235 21.3 36.931 0 7.862-2.127 15.228-5.836 21.553l0.109-0.201zM741.504 137.302c-7.649 12.211-21.030 20.212-36.28 20.212-23.564 0-42.667-19.103-42.667-42.667 0-7.403 1.886-14.366 5.203-20.435l-0.111 0.223 42.666-73.856c7.649-12.211 21.030-20.212 36.28-20.212 23.564 0 42.667 19.103 42.667 42.667 0 7.403-1.886 14.366-5.203 20.435l0.111-0.223zM844.246 598.102c7.855 0 15.213 2.123 21.534 5.826l-0.201-0.109 73.856 42.667c12.217 7.647 20.223 21.032 20.223 36.286 0 23.564-19.102 42.666-42.666 42.666-7.408 0-14.374-1.888-20.445-5.208l0.223 0.111-73.856-42.667c-12.801-7.524-21.258-21.228-21.258-36.907 0-23.538 19.060-42.624 42.587-42.666h0.004zM158.422 292.352l-73.856-42.666c-12.843-7.515-21.332-21.241-21.332-36.95 0-23.564 19.102-42.666 42.665-42.666v0c0.022 0 0.048 0 0.074 0 7.835 0 15.171 2.14 21.454 5.867l-0.195-0.107 73.856 42.666c12.217 7.647 20.223 21.032 20.223 36.286 0 23.564-19.102 42.666-42.666 42.666-7.408 0-14.374-1.888-20.445-5.208l0.223 0.111zM512.003 215.891c-128.187 0.007-232.1 103.925-232.1 232.113 0 128.192 103.92 232.113 232.113 232.113s232.113-103.92 232.113-232.113c0-0.004 0-0.009 0-0.013v0.001c-0.156-128.131-103.992-231.958-232.111-232.1h-0.014zM512.003 593.066c-80.111-0.007-145.050-64.951-145.050-145.062 0-80.116 64.947-145.062 145.062-145.062 80.111 0 145.055 64.94 145.062 145.050v0.001c-0.090 80.086-64.988 144.985-145.066 145.075h-0.009z" />
<glyph unicode="&#xe944;" glyph-name="sync" d="M981.162 448c-0.145 0.002-0.317 0.003-0.489 0.003-21.571 0-39.333-16.307-41.632-37.265l-0.017-0.187c-19.479-218.91-202.011-389.243-424.326-389.243-119.279 0-227.105 49.033-304.422 128.042l-0.074 0.076h117.075c23.493 0.084 42.506 19.148 42.506 42.653s-19.013 42.569-42.498 42.653h-170.614c-47.11-0.003-85.299-38.194-85.299-85.304 0-0.001 0-0.002 0-0.003v0-170.615c0-23.556 19.096-42.651 42.651-42.651s42.651 19.096 42.651 42.651v103.99c92.149-90.753 218.712-146.792 358.363-146.792 266.014 0 484.537 203.333 508.626 463.056l0.151 2.017c0.117 1.189 0.184 2.571 0.184 3.968 0 22.324-17.031 40.671-38.809 42.755l-0.174 0.013q-1.925 0.178-3.853 0.183zM909.978 959.843c-23.555-0.001-42.65-19.097-42.65-42.652 0 0 0-0.001 0-0.001v0-103.99c-92.15 90.754-218.712 146.793-358.364 146.793-266.015 0-484.538-203.334-508.627-463.057l-0.151-2.016c-0.117-1.189-0.184-2.571-0.184-3.968 0-22.324 17.031-40.671 38.809-42.755l0.174-0.013q1.923-0.178 3.852-0.183c0.146-0.002 0.318-0.003 0.491-0.003 21.57 0 39.332 16.307 41.63 37.265l0.017 0.187c19.479 218.911 202.011 389.245 424.326 389.245 119.279 0 227.106-49.033 304.424-128.043l0.074-0.076h-117.078c-23.557 0-42.654-19.097-42.654-42.654s19.097-42.654 42.654-42.654h170.606c47.11 0.003 85.299 38.194 85.299 85.305 0 0.001 0 0.002 0 0.003v0 170.614c0 0 0 0.001 0 0.001 0 23.555-19.095 42.651-42.649 42.652v0z" />
<glyph unicode="&#xe945;" glyph-name="target" d="M517.222 959.737c-1.438 0.411-3.209 0.781-5.018 1.032l-0.214 0.024c-2.025-0.274-3.8-0.645-5.529-1.127l0.285 0.068c-280.37-3.046-506.479-231.037-506.479-511.839 0-282.696 229.171-511.867 511.867-511.867s511.867 229.171 511.867 511.867c0 280.907-226.28 508.964-506.507 511.839l-0.272 0.002zM934.746 491.52h-122.907c-19.82 132.823-123.5 236.502-254.661 256.116l-1.664 0.204v122.903c200.192-21.51 357.718-179.033 379.067-377.345l0.164-1.878zM468.465 523.699c-13.45-7.838-24.339-18.728-31.951-31.764l-0.224-0.415h-136.159c18.026 84.721 83.615 150.313 166.913 168.091l1.422 0.254zM436.296 404.468c7.837-13.446 18.723-24.332 31.754-31.945l0.415-0.224v-136.168c-84.718 18.030-150.306 83.619-168.080 166.916l-0.254 1.422zM555.515 372.284c13.457 7.838 24.352 18.73 31.97 31.77l0.224 0.415h136.165c-18.029-84.728-83.629-150.323-166.938-168.092l-1.421-0.254zM587.715 491.52c-7.841 13.461-18.738 24.357-31.785 31.973l-0.415 0.224v136.157c84.733-18.022 150.335-83.622 168.105-166.933l0.254-1.421zM468.465 870.74v-122.903c-132.813-19.83-236.481-123.502-256.099-254.653l-0.204-1.664h-122.903c21.516 200.181 179.028 357.697 377.328 379.056l1.878 0.164zM89.262 404.468h122.9c19.827-132.81 123.494-236.478 254.639-256.103l1.664-0.205v-122.904c-200.175 21.525-357.683 179.036-379.039 377.332l-0.164 1.879zM555.515 25.255v122.904c132.82 19.817 236.498 123.489 256.12 254.643l0.205 1.664h122.903c-21.52-200.184-179.042-357.7-377.349-379.047l-1.878-0.164z" />
<glyph unicode="&#xe946;" glyph-name="thermometer" d="M481.946 295.987v395.615c0 16.57-13.433 30.003-30.003 30.003s-30.003-13.433-30.003-30.003v0-395.569c-53.225-13.85-91.883-61.478-91.883-118.135 0-67.316 54.57-121.886 121.886-121.886s121.886 54.57 121.886 121.886c0 56.657-38.657 104.285-91.035 117.948l-0.848 0.188zM451.942 115.917c0 0 0 0 0 0-34.175 0-61.879 27.704-61.879 61.879s27.704 61.879 61.879 61.879c34.175 0 61.879-27.704 61.879-61.879 0 0 0 0 0 0v0c-0.066-34.138-27.737-61.792-61.875-61.832h-0.004zM600.863 368.506v442.597c0 0.058 0 0.127 0 0.195 0 82.233-66.663 148.897-148.897 148.897s-148.897-66.663-148.897-148.897c0-0.069 0-0.137 0-0.206v0.011-442.598c-56.823-44.68-92.981-113.426-92.981-190.617 0-133.586 108.292-241.878 241.878-241.878s241.878 108.292 241.878 241.878c0 77.191-36.159 145.937-92.462 190.223l-0.519 0.394zM451.942-4.075c-100.461 0.029-181.889 81.475-181.889 181.94 0 62.377 31.39 117.422 79.236 150.201l0.622 0.402c7.973 5.476 13.136 14.54 13.143 24.811v457.823c0 49.079 39.786 88.866 88.866 88.866s88.866-39.786 88.866-88.866v0-457.821c0.007-10.272 5.17-19.337 13.041-24.746l0.102-0.066c48.467-33.181 79.858-88.226 79.858-150.604 0-100.465-81.428-181.911-181.886-181.94h-0.003zM783.856 481.014h-92.982c-16.57 0-30.003-13.433-30.003-30.003s13.433-30.003 30.003-30.003h92.982c0.019 0 0.042 0 0.064 0 16.57 0 30.003 13.433 30.003 30.003 0 16.548-13.396 29.967-29.936 30.003h-0.003zM783.856 601.030h-92.982c-16.571 0-30.004-13.433-30.004-30.004s13.433-30.004 30.004-30.004v0h92.982c0.019 0 0.042 0 0.064 0 16.571 0 30.004 13.433 30.004 30.004 0 16.548-13.397 29.967-29.936 30.004h-0.003zM783.856 721.069h-92.982c-16.571 0-30.004-13.433-30.004-30.004s13.433-30.004 30.004-30.004v0h92.982c16.571 0 30.004 13.433 30.004 30.004s-13.433 30.004-30.004 30.004v0zM690.874 781.1h92.982c0.011 0 0.024 0 0.036 0 16.57 0 30.003 13.433 30.003 30.003 0 16.558-13.412 29.983-29.965 30.003h-93.056c-16.57 0-30.003-13.433-30.003-30.003s13.433-30.003 30.003-30.003v0z" />
<glyph unicode="&#xe947;" glyph-name="times-circle" d="M512 959.574c-282.534 0-511.574-229.039-511.574-511.574s229.039-511.574 511.574-511.574c282.534 0 511.574 229.039 511.574 511.574v0c0 282.534-229.039 511.574-511.574 511.574v0zM512 21.689c-235.445 0-426.311 190.866-426.311 426.311s190.866 426.311 426.311 426.311c235.445 0 426.311-190.866 426.311-426.311v0c0-235.445-190.866-426.311-426.311-426.311v0zM682.267 618.267c-7.714 7.712-18.37 12.482-30.14 12.482s-22.426-4.77-30.141-12.482l-110.242-110.244-110.246 110.244c-7.659 7.406-18.106 11.97-29.619 11.97-23.545 0-42.631-19.087-42.631-42.631 0-11.513 4.564-21.961 11.982-29.632l-0.011 0.012 110.244-110.242-110.244-110.246c-7.402-7.658-11.963-18.102-11.963-29.612 0-23.545 19.087-42.631 42.631-42.631 11.51 0 21.954 4.561 29.624 11.974l110.234 110.232 110.244-110.244c7.659-7.406 18.106-11.97 29.62-11.97 23.545 0 42.631 19.087 42.631 42.631 0 11.513-4.564 21.96-11.981 29.631l0.011-0.012-110.246 110.246 110.244 110.244c7.711 7.714 12.481 18.37 12.481 30.14s-4.769 22.425-12.481 30.14v0z" />
<glyph unicode="&#xe948;" glyph-name="widget-check" d="M285.75 250.537c35.669-35.68 84.951-57.75 139.388-57.75s103.719 22.070 139.387 57.749l378.375 378.376c7.876 7.876 12.748 18.757 12.748 30.775 0 24.037-19.486 43.522-43.522 43.522-12.018 0-22.899-4.871-30.775-12.747l-378.375-378.375c-20.193-19.313-47.627-31.2-77.838-31.2s-57.645 11.887-77.88 31.24l0.042-0.040-204.65 204.65c-7.876 7.876-18.756 12.747-30.775 12.747-24.037 0-43.522-19.486-43.522-43.522 0-12.018 4.871-22.899 12.748-30.775v0z" />
</font>
</defs>
</svg>
